Comparte
Ir abajo
avatar
Admin
Administrador
Administrador
Sexo : Masculino
Mensajes : 975
Puntos : 3407
Reputación : 849
Fecha de inscripción : 02/04/2012
Localización : España

Comedia Ibiza (2018) [Ver online] [Descargar] [HD 1080p] [Español-Inglés] [Comedia]

el Sáb 2 Jun 2018 - 10:52
Reputación del mensaje :100% (1 voto)

Ficha Técnica
SINOPSIS: Una mujer junto a sus dos mejores amigas llegan a España para cerrar un gran negocio, pero en su lugar se ve inmersa en constantes fiestas salvajes y discotecas, donde se enamora de un dj de fama mundial y se da cuenta de que hay más en la vida aparte de su trabajo, que odia.
TÍTULO ORIGINAL: Ibiza
AÑO: [Tienes que estar registrado y conectado para ver este vínculo]
DURACIÓN: 94 min.
PAÍS:  Estados Unidos
DIRECTOR: Alex Richanbach
REPARTO: Gillian Jacobs,  Richard Madden,  Vanessa Bayer,  Augustus Prew,  Jordi Mollà, Faith Logan,  Phoebe Robinson,  Anthony Welsh,  Félix Gómez,  Humphrey Ker, Michelle Noh,  Miguel Ángel Silvestre
GÉNERO: [Tienes que estar registrado y conectado para ver este vínculo]

Capturas



Trailer

Info
CALIDAD DE VIDEO: BDRip m1080p MPEG4 Video (H264) 1920x1080
CALIDAD DE AUDIO 1: Castellano AC-3 - 5.1 - 448 Kbps
CALIDAD DE AUDIO 2: Inglés AC-3 - 5.1 - 448 Kbps
SUBTITULOS: Incluye completos en español e inglés y forzados en español.
TAMAÑO: 3.22 GiB
Mediainfo:
Format                      : Matroska
Format version              : Version 4 / Version 2
File size                   : 3.22 GiB
Duration                    : 1 h 34 min
Overall bit rate mode       : Variable
Overall bit rate            : 4 890 kb/s
Movie name                  : Ibiza - [Tienes que estar registrado y conectado para ver este vínculo]
Encoded date                : UTC 2018-05-30 17:42:39
Writing application         : mkvmerge v23.0.0 ('The Bride Said No') 64-bit
Writing library             : libebml v1.3.6 + libmatroska v1.4.9


Video
ID                          : 1
Format                      : AVC
Format/Info                 : Advanced Video Codec
Format profile              : Main@L4
Format settings             : CABAC / 3 Ref Frames
Format settings, CABAC      : Yes
Format settings, RefFrames  : 3 frames
Codec ID                    : V_MPEG4/ISO/AVC
Duration                    : 1 h 34 min
Bit rate mode               : Variable
Bit rate                    : 4 020 kb/s
Maximum bit rate            : 6 030 kb/s
Width                       : 1 920 pixels
Height                      : 1 080 pixels
Display aspect ratio        : 16:9
Frame rate mode             : Constant
Frame rate                  : 23.976 (24000/1001) FPS
Color space                 : YUV
Chroma subsampling          : 4:2:0
Bit depth                   : 8 bits
Scan type                   : Progressive
Bits/(Pixel*Frame)          : 0.081
Stream size                 : 2.63 GiB (82%)
Title                       : AVC
Writing library             : x264 core 148 r2715 7e75228
Encoding settings           : cabac=1 / ref=3 / deblock=1:0:0 / analyse=0x1:0x111 / me=umh / subme=10 / psy=1 / psy_rd=1.00:0.00 / mixed_ref=1 / me_range=24 / chroma_me=1 / trellis=2 / 8x8dct=0 / cqm=0 / deadzone=21,11 / fast_pskip=1 / chroma_qp_offset=-2 / threads=8 / lookahead_threads=1 / sliced_threads=0 / nr=0 / decimate=1 / interlaced=0 / bluray_compat=0 / stitchable=1 / constrained_intra=0 / bframes=2 / b_pyramid=0 / b_adapt=2 / b_bias=0 / direct=3 / weightb=1 / open_gop=0 / weightp=2 / keyint=48 / keyint_min=25 / scenecut=0 / intra_refresh=0 / rc_lookahead=48 / rc=2pass / mbtree=1 / bitrate=4020 / ratetol=1.0 / qcomp=0.50 / qpmin=6 / qpmax=51 / qpstep=4 / cplxblur=20.0 / qblur=0.5 / vbv_maxrate=6030 / vbv_bufsize=8040 / nal_hrd=vbr / filler=0 / ip_ratio=1.40 / aq=1:1.00
Language                    : Spanish
Default                     : Yes
Forced                      : No


Audio [Tienes que estar registrado y conectado para ver este vínculo]
ID                          : 2
Format                      : AC-3
Format/Info                 : Audio Coding 3
Format settings, Endianness : Big
Codec ID                    : A_AC3
Duration                    : 1 h 33 min
Bit rate mode               : Constant
Bit rate                    : 448 kb/s
Channel(s)                  : 6 channels
Channel positions           : Front: L C R, Side: L R, LFE
Sampling rate               : 48.0 kHz
Frame rate                  : 31.250 FPS (1536 SPF)
Bit depth                   : 16 bits
Compression mode            : Lossy
Stream size                 : 301 MiB (9%)
Title                       : AC-3
Language                    : Spanish
Service kind                : Complete Main
Default                     : Yes
Forced                      : No


Audio [Tienes que estar registrado y conectado para ver este vínculo]
ID                          : 3
Format                      : E-AC-3
Format/Info                 : Enhanced Audio Coding 3
Format profile              : E-AC-3+Atmos / E-AC-3
Format settings, Endianness : Big
Codec ID                    : A_EAC3
Duration                    : 1 h 33 min
Bit rate mode               : Constant
Bit rate                    : 448 kb/s
Channel(s)                  : 15 objects / 6 channels
Channel positions           : 15 objects / Front: L C R, Side: L R, LFE
Sampling rate               : 48.0 kHz
Frame rate                  : 187.500 FPS (256 SPF)
Compression mode            : Lossy
Stream size                 : 300 MiB (9%)
Title                       : AC-3
Language                    : English
Service kind                : Complete Main
Default                     : No
Forced                      : No


Text [Tienes que estar registrado y conectado para ver este vínculo]
ID                          : 4
Format                      : UTF-8
Codec ID                    : S_TEXT/UTF8
Codec ID/Info               : UTF-8 Plain Text
Duration                    : 1 h 33 min
Bit rate                    : 0 b/s
Count of elements           : 3
Stream size                 : 125 Bytes (0%)
Title                       : Forzados
Language                    : Spanish
Default                     : Yes
Forced                      : No


Text [Tienes que estar registrado y conectado para ver este vínculo]
ID                          : 5
Format                      : UTF-8
Codec ID                    : S_TEXT/UTF8
Codec ID/Info               : UTF-8 Plain Text
Duration                    : 1 h 27 min
Bit rate                    : 63 b/s
Count of elements           : 1150
Stream size                 : 40.6 KiB (0%)
Title                       : Completos
Language                    : Spanish
Default                     : No
Forced                      : No


Text [Tienes que estar registrado y conectado para ver este vínculo]
ID                          : 6
Format                      : UTF-8
Codec ID                    : S_TEXT/UTF8
Codec ID/Info               : UTF-8 Plain Text
Duration                    : 1 h 32 min
Bit rate                    : 82 b/s
Count of elements           : 1428
Stream size                 : 55.7 KiB (0%)
Title                       : Completos
Language                    : English
Default                     : No
Forced                      : No


Enlaces Descarga
[Tienes que estar registrado y conectado para ver este vínculo] - [Tienes que estar registrado y conectado para ver este vínculo] - [Tienes que estar registrado y conectado para ver este vínculo] - [Tienes que estar registrado y conectado para ver este vínculo] - [Tienes que estar registrado y conectado para ver este vínculo] - [Tienes que estar registrado y conectado para ver este vínculo] - [Tienes que estar registrado y conectado para ver este vínculo] - [Tienes que estar registrado y conectado para ver este vínculo] - [Tienes que estar registrado y conectado para ver este vínculo] - [Tienes que estar registrado y conectado para ver este vínculo]
En algunos servidores (Tusfiles, Filebebo, Userscloud...) es necesario estar registrado para descargar a mayor velocidad.


Enlaces Online
[Tienes que estar registrado y conectado para ver este vínculo] - [Tienes que estar registrado y conectado para ver este vínculo] - [Tienes que estar registrado y conectado para ver este vínculo] - [Tienes que estar registrado y conectado para ver este vínculo] - [Tienes que estar registrado y conectado para ver este vínculo] - [Tienes que estar registrado y conectado para ver este vínculo] - [Tienes que estar registrado y conectado para ver este vínculo]
Para ver online en Userscloud necesitas estar registrado en su página y usar el navegador [Tienes que estar registrado y conectado para ver este vínculo]


Reproductor
(Rapidvideo)



NOTA: Por favor, si los enlaces están caidos avisa en un comentario para poder resubirlos. Gracias

______________________________________________________
Saludos  Smile
Volver arriba
Permisos de este foro:
No puedes responder a temas en este foro.