Comparte
Ir abajo
avatar
Admin
Administrador
Administrador
Sexo : Masculino
Mensajes : 1159
Puntos : 3959
Reputación : 976
Fecha de inscripción : 02/04/2012
Localización : España

Drama Qué fue de Brad (2017) [Ver Online] [Descargar] [HD 1080p] [Español - Ingles]

el Sáb 2 Jun 2018 - 11:58
Reputación del mensaje :100% (1 voto)

Ficha Técnica
SINOPSIS: Brad, a pesar de tener una buena carrera profesional y una familia feliz, está obsesionado con el éxito y las fortunas que poseen sus antiguos compañeros de la escuela. Durante un viaje a la Costa Este en el que acompaña a su hijo, Brad se verá obligado a enfrentarse a su sentimiento de fracaso vital.
TÍTULO ORIGINAL: Ibiza
AÑO: [Tienes que estar registrado y conectado para ver este vínculo]
DURACIÓN: 101 min.
PAÍS:  Estados Unidos
DIRECTOR: Mike White
REPARTO: Ben Stiller, Austin Abrams, Jenna Fischer, Michael Sheen, Luke Wilson, Jemaine Clement, Erin Agostino, Denisa Juhos, Pamela Figueiredo, Bruce Dawson, Nathaly Thibault, Shazi Raja, Larry Eudene, Meghan Gabruch, Richard Jutras, Dawn Ford, Xavier Pérez Grobet, Mike White
GÉNERO: [Tienes que estar registrado y conectado para ver este vínculo] [Tienes que estar registrado y conectado para ver este vínculo] | Cine independiente USA. [Tienes que estar registrado y conectado para ver este vínculo]

Capturas



Trailer

Info
CALIDAD DE VIDEO: BDRip m1080p MPEG4 Video (H264) 1920x956
CALIDAD DE AUDIO 1: Castellano AC-3 - 5.1 - 448 Kbps
CALIDAD DE AUDIO 2: Inglés AC-3 - 5.1 - 448 Kbps
SUBTITULOS: Incluye completos en español e inglés y forzados en español.
TAMAÑO: 4.57 GB
Mediainfo:
Format : Matroska
Format version : Version 4 / Version 2
File size : 4.57 GiB
Duration : 1 h 41 min
Overall bit rate : 6 416 kb/s
Movie name : Qué fue de Brad - [Tienes que estar registrado y conectado para ver este vínculo]
Encoded date : UTC 2018-05-30 22:50:23
Writing application : mkvmerge v23.0.0 ('The Bride Said No') 64-bit
Writing library : libebml v1.3.6 + libmatroska v1.4.9


Video
ID : 1
Format : AVC
Format/Info : Advanced Video Codec
Format profile : High@L4.1
Format settings : CABAC / 4 Ref Frames
Format settings, CABAC : Yes
Format settings, RefFrames : 4 frames
Codec ID : V_MPEG4/ISO/AVC
Duration : 1 h 41 min
Bit rate : 5 517 kb/s
Width : 1 920 pixels
Height : 956 pixels
Display aspect ratio : 2.008
Frame rate mode : Constant
Frame rate : 23.976 (24000/1001) FPS
Color space : YUV
Chroma subsampling : 4:2:0
Bit depth : 8 bits
Scan type : Progressive
Bits/(Pixel*Frame) : 0.125
Stream size : 3.93 GiB (86%)
Title : AVC
Writing library : x264 core 152 r2851 ba24899
Encoding settings : cabac=1 / ref=4 / deblock=1:-3:-3 / analyse=0x3:0x113 / me=umh / subme=11 / psy=1 / psy_rd=1.10:0.00 / mixed_ref=1 / me_range=48 / chroma_me=1 / trellis=2 / 8x8dct=1 / cqm=0 / deadzone=21,11 / fast_pskip=0 / chroma_qp_offset=-2 / threads=25 / lookahead_threads=2 / sliced_threads=0 / nr=0 / decimate=1 / interlaced=0 / bluray_compat=0 / constrained_intra=0 / bframes=6 / b_pyramid=2 / b_adapt=2 / b_bias=0 / direct=1 / weightb=1 / open_gop=0 / weightp=2 / keyint=240 / keyint_min=23 / scenecut=40 / intra_refresh=0 / rc_lookahead=70 / rc=crf / mbtree=1 / crf=21.8 / qcomp=0.65 / qpmin=0 / qpmax=69 / qpstep=4 / vbv_maxrate=62500 / vbv_bufsize=78125 / crf_max=0.0 / nal_hrd=none / filler=0 / ip_ratio=1.40 / aq=1:1.10
Language : Spanish
Default : Yes
Forced : No


Audio [Tienes que estar registrado y conectado para ver este vínculo]
ID : 2
Format : AC-3
Format/Info : Audio Coding 3
Format settings, Endianness : Big
Codec ID : A_AC3
Duration : 1 h 41 min
Bit rate mode : Constant
Bit rate : 448 kb/s
Channel(s) : 6 channels
Channel positions : Front: L C R, Side: L R, LFE
Sampling rate : 48.0 kHz
Frame rate : 31.250 FPS (1536 SPF)
Bit depth : 16 bits
Compression mode : Lossy
Stream size : 327 MiB (7%)
Title : AC-3
Language : Spanish
Service kind : Complete Main
Default : Yes
Forced : No


Audio [Tienes que estar registrado y conectado para ver este vínculo]
ID : 3
Format : AC-3
Format/Info : Audio Coding 3
Format settings, Endianness : Big
Codec ID : A_AC3
Duration : 1 h 41 min
Bit rate mode : Constant
Bit rate : 448 kb/s
Channel(s) : 6 channels
Channel positions : Front: L C R, Side: L R, LFE
Sampling rate : 48.0 kHz
Frame rate : 31.250 FPS (1536 SPF)
Bit depth : 16 bits
Compression mode : Lossy
Stream size : 327 MiB (7%)
Title : AC-3
Language : English
Service kind : Complete Main
Default : No
Forced : No


Text [Tienes que estar registrado y conectado para ver este vínculo]
ID : 4
Format : UTF-8
Codec ID : S_TEXT/UTF8
Codec ID/Info : UTF-8 Plain Text
Duration : 1 h 26 min
Bit rate : 0 b/s
Count of elements : 3
Stream size : 54.0 Bytes (0%)
Title : Forzados
Language : Spanish
Default : Yes
Forced : No


Text [Tienes que estar registrado y conectado para ver este vínculo]
ID : 5
Format : UTF-8
Codec ID : S_TEXT/UTF8
Codec ID/Info : UTF-8 Plain Text
Duration : 1 h 40 min
Bit rate : 80 b/s
Count of elements : 1731
Stream size : 59.3 KiB (0%)
Title : Completos
Language : Spanish
Default : No
Forced : No


Text [Tienes que estar registrado y conectado para ver este vínculo]
ID : 6
Format : UTF-8
Codec ID : S_TEXT/UTF8
Codec ID/Info : UTF-8 Plain Text
Duration : 1 h 40 min
Bit rate : 76 b/s
Count of elements : 1740
Stream size : 56.5 KiB (0%)
Title : Complets
Language : English
Default : No
Forced : No


Menu
00:00:00.000 : en:00:00:00.000
00:06:45.655 : en:00:06:45.655
00:09:51.549 : en:00:09:51.549
00:13:41.821 : en:00:13:41.821
00:19:08.647 : en:00:19:08.647
00:25:13.929 : en:00:25:13.929
00:31:48.615 : en:00:31:48.615
00:34:22.769 : en:00:34:22.769
00:39:59.063 : en:00:39:59.063
00:43:55.508 : en:00:43:55.508
00:49:21.041 : en:00:49:21.041
00:56:21.503 : en:00:56:21.503
01:03:05.156 : en:01:03:05.156
01:07:03.770 : en:01:07:03.770
01:10:27.306 : en:01:10:27.306
01:15:14.802 : en:01:15:14.802
01:22:07.047 : en:01:22:07.047
01:27:11.268 : en:01:27:11.268
01:31:19.265 : en:01:31:19.265
01:35:28.723 : en:01:35:28.723


Enlaces Descarga
Uptobox - Userscloud - Filebebo - 1fichier - Depositfiles - Wayupload
En algunos servidores (Tusfiles, Filebebo, Userscloud...) es necesario estar registrado para descargar a mayor velocidad.


Enlaces Online
Rapidvideo - Openload - Vidoza - Streamango - Vidlox - Userscloud
Para ver online en Userscloud necesitas estar registrado en su página y usar el navegador Google Chrome


Reproductor
(Rapidvideo)



NOTA: Por favor, si los enlaces están caidos avisa en un comentario para poder resubirlos. Gracias

______________________________________________________
Saludos  Smile
Volver arriba
Permisos de este foro:
No puedes responder a temas en este foro.