Comparte
Ir abajo
avatar
Admin
Administrador
Administrador
Sexo : Masculino
Mensajes : 1514
Puntos : 4771
Reputación : 1103
Fecha de inscripción : 02/04/2012
Localización : España

Thriller Cita con el miedo (2017) [Ver Online] [Descargar] [HD 1080p] [Castellano - Inglés] [Thriller]

el Miér 6 Jun 2018 - 22:18
Reputación del mensaje :100% (1 voto)

Ficha Técnica
SINOPSIS: La vida de un playboy que usa internet para quedar con mujeres cambia radicalmente después de conocer a una de ellas.
TÍTULO ORIGINAL: Bad Match
AÑO: [Tienes que estar registrado y conectado para ver este vínculo]
DURACIÓN: 90 min.
PAÍS:  Estados Unidos
DIRECTOR: David Chirchirillo
REPARTO: Jack Cutmore-Scott, Lili Simmons, Noureen DeWulf, Trent Haaga, Chase Williamson, Christine Donlon, Brandon Scott, Kahyun Kim, Talisa Friedman, Brent Alan Henry, Zedrick Restauro, Eric Podnar, Cynthia Rose Hall, Pablo Ramos, Hannah Elizabeth Carter, Amanda J. Dobos, John Elefantis, Wesley Sean
GÉNERO: [Tienes que estar registrado y conectado para ver este vínculo]

Capturas



Trailer

Info
CALIDAD DE VIDEO: BDRip m1080p MPEG4 Video (H264) 1916x796
CALIDAD DE AUDIO 1: Castellano AC-3 - 5.1 - 448 Kbps
CALIDAD DE AUDIO 2: Inglés AC-3 - 5.1 - 448 Kbps
SUBTITULOS: Incluye completos en español e inglés y forzados en español.
TAMAÑO: 3.20 GiB
Mediainfo:
Format : Matroska
Format version : Version 4 / Version 2
File size : 3.20 GiB
Duration : 1 h 23 min
Overall bit rate : 5 503 kb/s
Movie name : Cita con el Miedo - [Tienes que estar registrado y conectado para ver este vínculo]
Encoded date : UTC 2018-06-04 23:09:37
Writing application : mkvmerge v23.0.0 ('The Bride Said No') 64-bit
Writing library : libebml v1.3.6 + libmatroska v1.4.9


Video
ID : 1
Format : AVC
Format/Info : Advanced Video Codec
Format profile : High@L4
Format settings : CABAC / 5 Ref Frames
Format settings, CABAC : Yes
Format settings, RefFrames : 5 frames
Codec ID : V_MPEG4/ISO/AVC
Duration : 1 h 23 min
Bit rate : 4 605 kb/s
Width : 1 916 pixels
Height : 796 pixels
Display aspect ratio : 2.40:1
Frame rate mode : Constant
Frame rate : 23.976 (23976/1000) FPS
Color space : YUV
Chroma subsampling : 4:2:0
Bit depth : 8 bits
Scan type : Progressive
Bits/(Pixel*Frame) : 0.126
Stream size : 2.67 GiB (84%)
Title : AVC
Language : Spanish
Default : Yes
Forced : No
Color range : Limited
Color primaries : BT.709
Transfer characteristics : BT.709
Matrix coefficients : BT.709


Audio [Tienes que estar registrado y conectado para ver este vínculo]
ID : 2
Format : AC-3
Format/Info : Audio Coding 3
Format settings, Endianness : Big
Codec ID : A_AC3
Duration : 1 h 23 min
Bit rate mode : Constant
Bit rate : 448 kb/s
Channel(s) : 6 channels
Channel positions : Front: L C R, Side: L R, LFE
Sampling rate : 48.0 kHz
Frame rate : 31.250 FPS (1536 SPF)
Bit depth : 16 bits
Compression mode : Lossy
Delay relative to video : -42 ms
Stream size : 266 MiB (8%)
Title : AC-3
Language : Spanish
Service kind : Complete Main
Default : Yes
Forced : No


Audio [Tienes que estar registrado y conectado para ver este vínculo]
ID : 3
Format : AC-3
Format/Info : Audio Coding 3
Format settings, Endianness : Big
Codec ID : A_AC3
Duration : 1 h 23 min
Bit rate mode : Constant
Bit rate : 448 kb/s
Channel(s) : 6 channels
Channel positions : Front: L C R, Side: L R, LFE
Sampling rate : 48.0 kHz
Frame rate : 31.250 FPS (1536 SPF)
Bit depth : 16 bits
Compression mode : Lossy
Delay relative to video : -42 ms
Stream size : 266 MiB (8%)
Title : AC-3
Language : English
Service kind : Complete Main
Default : No
Forced : No


Text [Tienes que estar registrado y conectado para ver este vínculo]
ID : 4
Format : UTF-8
Codec ID : S_TEXT/UTF8
Codec ID/Info : UTF-8 Plain Text
Duration : 1 h 19 min
Bit rate : 1 b/s
Count of elements : 33
Stream size : 994 Bytes (0%)
Title : Forzados
Language : Spanish
Default : Yes
Forced : No


Text [Tienes que estar registrado y conectado para ver este vínculo]
ID : 5
Format : UTF-8
Codec ID : S_TEXT/UTF8
Codec ID/Info : UTF-8 Plain Text
Duration : 1 h 17 min
Bit rate : 58 b/s
Count of elements : 1087
Stream size : 33.0 KiB (0%)
Title : Completos
Language : Spanish
Default : No
Forced : No


Text [Tienes que estar registrado y conectado para ver este vínculo]
ID : 6
Format : UTF-8
Codec ID : S_TEXT/UTF8
Codec ID/Info : UTF-8 Plain Text
Duration : 1 h 20 min
Bit rate : 89 b/s
Count of elements : 1539
Stream size : 53.2 KiB (0%)
Title : Completos
Language : English
Default : No
Forced : No


Menu
00:00:00.000 : en:Chapter 1
00:09:14.000 : en:Chapter 2
00:18:33.000 : en:Chapter 3
00:26:33.000 : en:Chapter 4
00:32:34.000 : en:Chapter 5
00:38:47.000 : en:Chapter 6
00:48:00.000 : en:Chapter 7
00:57:03.000 : en:Chapter 8
01:04:16.000 : en:Chapter 9
01:14:50.000 : en:Chapter 10


Enlaces Descarga
Uptobox - Userscloud - Filebebo - 1fichier - Depositfiles - Hitfile - Rapidgator - Turbobit - Wayupload
En algunos servidores (Tusfiles, Filebebo, Userscloud...) es necesario estar registrado para descargar a mayor velocidad.


Enlaces Online
Rapidvideo - Openload - Vidoza - Streamango - Vidlox - Userscloud
Para ver online en Userscloud necesitas estar registrado en su página y usar el navegador Google Chrome


Reproductor
(Rapidvideo)



NOTA: Por favor, si los enlaces están caidos avisa en un comentario para poder resubirlos. Gracias

______________________________________________________
Saludos  Smile
Volver arriba
Permisos de este foro:
No puedes responder a temas en este foro.