Comparte
Ir abajo
avatar
Admin
Administrador
Administrador
Sexo : Masculino
Mensajes : 1159
Puntos : 3959
Reputación : 976
Fecha de inscripción : 02/04/2012
Localización : España

Acción The Condemned 2 (2015) [Ver Online] [Descargar] [HD 1080p] [Castellano-Inglés] [Acción]

el Miér 6 Jun 2018 - 23:21
Reputación del mensaje :100% (1 voto)

Ficha Técnica
SINOPSIS: Un antiguo cazarrecompensas se encuentra envuelto en un renovado "Torneo de los Condenados", en el que los convictos tienen que luchar a muerte unos contra otros como parte de un juego que se retransmite públicamente.
TÍTULO ORIGINAL: The Condemned 2
AÑO: [Tienes que estar registrado y conectado para ver este vínculo]
DURACIÓN: 90 min.
PAÍS:  Estados Unidos
DIRECTOR: Roel Reiné
REPARTO: Randy Orton,  Eric Roberts,  Wes Studi,  Steven Michael Quezada,  Bill Stinchcomb, Alex Knight,  Michael Sheets,  Morse Bicknell,  Jesi Rael,  Matthew Page, Merritt C. Glover,  Audrey Walters,  Dylan Kenin,  Mark Sivertsen,  Sonia Maslovskaya
GÉNERO: [Tienes que estar registrado y conectado para ver este vínculo] | [Tienes que estar registrado y conectado para ver este vínculo]

Capturas



Trailer

Info
CALIDAD DE VIDEO: BDRip m1080p MPEG4 Video (H264) 1920x1080
CALIDAD DE AUDIO 1: Castellano AC-3 - 5.1 - 448 Kbps
CALIDAD DE AUDIO 2: Inglés AC-3 - 5.1 - 448 Kbps
SUBTITULOS: Incluye completos en español e inglés y forzados en español.
TAMAÑO: 4.61 GiB
Mediainfo:
Format                      : Matroska
Format version              : Version 4 / Version 2
File size                   : 4.61 GiB
Duration                    : 1 h 30 min
Overall bit rate            : 7 278 kb/s
Movie name                  : El Juego de los Condenados - [Tienes que estar registrado y conectado para ver este vínculo]
Encoded date                : UTC 2018-06-05 16:45:04
Writing application         : mkvmerge v23.0.0 ('The Bride Said No') 64-bit
Writing library             : libebml v1.3.6 + libmatroska v1.4.9


Video
ID                          : 1
Format                      : AVC
Format/Info                 : Advanced Video Codec
Format profile              : High@L4.1
Format settings             : CABAC / 2 Ref Frames
Format settings, CABAC      : Yes
Format settings, RefFrames  : 2 frames
Codec ID                    : V_MPEG4/ISO/AVC
Duration                    : 1 h 30 min
Bit rate                    : 6 418 kb/s
Width                       : 1 920 pixels
Height                      : 1 080 pixels
Display aspect ratio        : 16:9
Frame rate mode             : Constant
Frame rate                  : 23.976 (24000/1001) FPS
Color space                 : YUV
Chroma subsampling          : 4:2:0
Bit depth                   : 8 bits
Scan type                   : Progressive
Bits/(Pixel*Frame)          : 0.129
Stream size                 : 4.05 GiB (88%)
Title                       : AVC
Writing library             : x264 core 142
Encoding settings           : cabac=1 / ref=1 / deblock=1👎-1 / analyse=0x3:0 / me=hex / subme=5 / psy=0 / mixed_ref=0 / me_range=16 / chroma_me=1 / trellis=0 / 8x8dct=1 / cqm=0 / deadzone=21,11 / fast_pskip=0 / chroma_qp_offset=0 / threads=16 / lookahead_threads=4 / sliced_threads=0 / nr=0 / decimate=1 / interlaced=0 / bluray_compat=0 / constrained_intra=0 / bframes=2 / b_pyramid=0 / b_adapt=1 / b_bias=0 / direct=1 / weightb=0 / open_gop=0 / weightp=0 / keyint=24 / keyint_min=13 / scenecut=40 / intra_refresh=0 / rc=crf / mbtree=0 / crf=24.0 / qcomp=0.60 / qpmin=0 / qpmax=69 / qpstep=4 / ip_ratio=1.40 / pb_ratio=1.30 / aq=1:1.00
Language                    : Spanish
Default                     : Yes
Forced                      : No
Color range                 : Limited
Color primaries             : BT.709
Transfer characteristics    : BT.709
Matrix coefficients         : BT.709


Audio [Tienes que estar registrado y conectado para ver este vínculo]
ID                          : 2
Format                      : AC-3
Format/Info                 : Audio Coding 3
Format settings, Endianness : Big
Codec ID                    : A_AC3
Duration                    : 1 h 30 min
Bit rate mode               : Constant
Bit rate                    : 448 kb/s
Channel(s)                  : 2 channels
Channel positions           : Front: L R
Sampling rate               : 48.0 kHz
Frame rate                  : 31.250 FPS (1536 SPF)
Bit depth                   : 16 bits
Compression mode            : Lossy
Stream size                 : 289 MiB (6%)
Title                       : AC-3
Language                    : Spanish
Service kind                : Complete Main
Default                     : Yes
Forced                      : No


Audio [Tienes que estar registrado y conectado para ver este vínculo]
ID                          : 3
Format                      : AC-3
Format/Info                 : Audio Coding 3
Format settings, Endianness : Big
Codec ID                    : A_AC3
Duration                    : 1 h 30 min
Bit rate mode               : Constant
Bit rate                    : 448 kb/s
Channel(s)                  : 6 channels
Channel positions           : Front: L C R, Side: L R, LFE
Sampling rate               : 48.0 kHz
Frame rate                  : 31.250 FPS (1536 SPF)
Bit depth                   : 16 bits
Compression mode            : Lossy
Stream size                 : 291 MiB (6%)
Title                       : AC-3
Language                    : English
Service kind                : Complete Main
Default                     : No
Forced                      : No


Text [Tienes que estar registrado y conectado para ver este vínculo]
ID                          : 4
Format                      : UTF-8
Codec ID                    : S_TEXT/UTF8
Codec ID/Info               : UTF-8 Plain Text
Duration                    : 1 h 11 min
Bit rate                    : 0 b/s
Count of elements           : 5
Stream size                 : 87.0 Bytes (0%)
Title                       : Forzados
Language                    : Spanish
Default                     : Yes
Forced                      : No


Text [Tienes que estar registrado y conectado para ver este vínculo]
ID                          : 5
Format                      : UTF-8
Codec ID                    : S_TEXT/UTF8
Codec ID/Info               : UTF-8 Plain Text
Duration                    : 1 h 22 min
Bit rate                    : 39 b/s
Count of elements           : 691
Stream size                 : 23.8 KiB (0%)
Title                       : Completos
Language                    : English
Default                     : No
Forced                      : No


Text [Tienes que estar registrado y conectado para ver este vínculo]
ID                          : 6
Format                      : UTF-8
Codec ID                    : S_TEXT/UTF8
Codec ID/Info               : UTF-8 Plain Text
Duration                    : 1 h 22 min
Bit rate                    : 40 b/s
Count of elements           : 897
Stream size                 : 24.2 KiB (0%)
Title                       : Completos
Language                    : English
Default                     : No
Forced                      : No


Menu
00:00:00.000                : en:Chapter 1
00:05:10.268                : en:Chapter 2
00:10:51.693                : en:Chapter 3
00:16:40.958                : en:Chapter 4
00:24:10.824                : en:Chapter 5
00:29:33.063                : en:Chapter 6
00:35:30.712                : en:Chapter 7
00:40:32.096                : en:Chapter 8
00:46:27.910                : en:Chapter 9
00:50:58.847                : en:Chapter 10
00:58:51.236                : en:Chapter 11
01:05:29.134                : en:Chapter 12
01:09:39.634                : en:Chapter 13
01:13:52.803                : en:Chapter 14
01:18:19.862                : en:Chapter 15
01:23:30.255                : en:Chapter 16


Enlaces Descarga
Tusfiles - Uptobox - Userscloud - 1fichier - Depositfiles - Rapidgator - Wayupload
En algunos servidores (Tusfiles, Filebebo, Userscloud...) es necesario estar registrado para descargar a mayor velocidad.


Enlaces Online
Rapidvideo - Openload - Vidoza - Streamango - Vidlox - Userscloud
Para ver online en Userscloud necesitas estar registrado en su página y usar el navegador Google Chrome


Reproductor
(Rapidvideo)



NOTA: Por favor, si los enlaces están caidos avisa en un comentario para poder resubirlos. Gracias

______________________________________________________
Saludos  Smile
Volver arriba
Permisos de este foro:
No puedes responder a temas en este foro.