Comparte
Ir abajo
avatar
Admin
Administrador
Administrador
Sexo : Masculino
Mensajes : 1520
Puntos : 4791
Reputación : 1103
Fecha de inscripción : 02/04/2012
Localización : España

Acción 15:17 Tren a París (2018) [Ver Online] [Descargar] [HD 1080p] [Castellano-Inglés] [Acción]

el Sáb 9 Jun 2018 - 1:09
Reputación del mensaje :100% (1 voto)

Ficha Técnica
SINOPSIS: En la tarde del 21 de agosto de 2015, tres jóvenes americanos que viajaban por Europa se enfrentaron a un terrorista en un tren con destino a París, con 500 pasajeros a bordo. La película narra el curso de las vidas de estos amigos, desde los avatares de su niñez para encontrar su destino, hasta la serie de eventos que precedieron al ataque. A lo largo de esta desgarradora experiencia, su amistad nunca flaqueó, convirtiéndola en su mejor arma.
TÍTULO ORIGINAL: The 15:17 to Paris
AÑO: [Tienes que estar registrado y conectado para ver este vínculo]
DURACIÓN: 94 min.
PAÍS:  Estados Unidos
DIRECTOR: Clint Eastwood
REPARTO: Spencer Stone, Anthony Sadler, Alek Skarlatos, Judy Greer, Jenna Fischer, Ray Corasani, Tony Hale, Thomas Lennon, Sinqua Walls, Paul-Mikel Williams, Max Ivutin, Bryce Gheisar, Cole Eichenberger, William Jennings, Jaleel White, P.J. Byrne, Robert Pralgo, Steve Coulter, Gary Weeks, Timothy Carr, Cecil M. Henry, Lillian Solange Beaudoin, BreeAnna Marie, Ethan Rains, Mariam Vardani, Jeanne Goursaud, Irene White, Seth Meriwether, Matthew Barnes
GÉNERO: [Tienes que estar registrado y conectado para ver este vínculo] [Tienes que estar registrado y conectado para ver este vínculo] | Basado en hechos reales [Tienes que estar registrado y conectado para ver este vínculo] [Tienes que estar registrado y conectado para ver este vínculo] [Tienes que estar registrado y conectado para ver este vínculo] [Tienes que estar registrado y conectado para ver este vínculo] [Tienes que estar registrado y conectado para ver este vínculo]

Capturas



Trailer

Info
CALIDAD DE VIDEO: BDRip m1080p MPEG4 Video (H264) 1920x804
CALIDAD DE AUDIO 1: Castellano AC-3 - 5.1 - 448 Kbps
CALIDAD DE AUDIO 2: Inglés AC-3 - 5.1 - 448 Kbps
SUBTITULOS: Incluye completos en español e inglés y forzados en español.
TAMAÑO: 4.64 GiB
Mediainfo:
Format : Matroska
Format version : Version 4 / Version 2
File size : 4.64 GiB
Duration : 1 h 33 min
Overall bit rate : 7 075 kb/s
Movie name : 15:17 Tren a París - [Tienes que estar registrado y conectado para ver este vínculo]
Encoded date : UTC 2018-06-07 23:53:28
Writing application : mkvmerge v23.0.0 ('The Bride Said No') 64-bit
Writing library : libebml v1.3.6 + libmatroska v1.4.9


Video
ID : 1
Format : AVC
Format/Info : Advanced Video Codec
Format profile : High@L4.1
Format settings : CABAC / 5 Ref Frames
Format settings, CABAC : Yes
Format settings, RefFrames : 5 frames
Codec ID : V_MPEG4/ISO/AVC
Duration : 1 h 33 min
Bit rate : 6 164 kb/s
Width : 1 920 pixels
Height : 804 pixels
Display aspect ratio : 2.40:1
Frame rate mode : Constant
Frame rate : 23.976 (24000/1001) FPS
Color space : YUV
Chroma subsampling : 4:2:0
Bit depth : 8 bits
Scan type : Progressive
Bits/(Pixel*Frame) : 0.167
Stream size : 4.04 GiB (87%)
Title : AVC
Writing library : x264 core 155 r2901 7d0ff22
Encoding settings : cabac=1 / ref=5 / deblock=1:-3:-3 / analyse=0x3:0x113 / me=tesa / subme=11 / psy=1 / psy_rd=1.10:0.00 / mixed_ref=1 / me_range=64 / chroma_me=1 / trellis=2 / 8x8dct=1 / cqm=0 / deadzone=21,11 / fast_pskip=0 / chroma_qp_offset=-2 / threads=25 / lookahead_threads=6 / sliced_threads=0 / nr=0 / decimate=1 / interlaced=0 / bluray_compat=0 / constrained_intra=0 / bframes=10 / b_pyramid=2 / b_adapt=2 / b_bias=0 / direct=1 / weightb=1 / open_gop=0 / weightp=2 / keyint=240 / keyint_min=23 / scenecut=40 / intra_refresh=0 / rc_lookahead=80 / rc=crf / mbtree=1 / crf=19.3 / qcomp=0.70 / qpmin=0 / qpmax=69 / qpstep=4 / vbv_maxrate=62500 / vbv_bufsize=78125 / crf_max=0.0 / nal_hrd=none / filler=0 / ip_ratio=1.40 / aq=1:1.10
Language : Spanish
Default : Yes
Forced : No
Color range : Limited
Color primaries : BT.709
Transfer characteristics : BT.709
Matrix coefficients : BT.709


Audio [Tienes que estar registrado y conectado para ver este vínculo]
ID : 2
Format : AC-3
Format/Info : Audio Coding 3
Format settings, Endianness : Big
Codec ID : A_AC3
Duration : 1 h 33 min
Bit rate mode : Constant
Bit rate : 448 kb/s
Channel(s) : 6 channels
Channel positions : Front: L C R, Side: L R, LFE
Sampling rate : 48.0 kHz
Frame rate : 31.250 FPS (1536 SPF)
Bit depth : 16 bits
Compression mode : Lossy
Stream size : 301 MiB (6%)
Title : AC-3
Language : Spanish
Service kind : Complete Main
Default : Yes
Forced : No


Audio [Tienes que estar registrado y conectado para ver este vínculo]
ID : 3
Format : AC-3
Format/Info : Audio Coding 3
Format settings, Endianness : Big
Codec ID : A_AC3
Duration : 1 h 33 min
Bit rate mode : Constant
Bit rate : 448 kb/s
Channel(s) : 6 channels
Channel positions : Front: L C R, Side: L R, LFE
Sampling rate : 48.0 kHz
Frame rate : 31.250 FPS (1536 SPF)
Bit depth : 16 bits
Compression mode : Lossy
Stream size : 301 MiB (6%)
Title : AC-3
Language : English
Service kind : Complete Main
Default : No
Forced : No


Text [Tienes que estar registrado y conectado para ver este vínculo]
ID : 4
Format : UTF-8
Codec ID : S_TEXT/UTF8
Codec ID/Info : UTF-8 Plain Text
Duration : 1 h 26 min
Bit rate : 3 b/s
Count of elements : 55
Stream size : 2.46 KiB (0%)
Title : Forzados
Language : Spanish
Default : Yes
Forced : No


Text [Tienes que estar registrado y conectado para ver este vínculo]
ID : 5
Format : UTF-8
Codec ID : S_TEXT/UTF8
Codec ID/Info : UTF-8 Plain Text
Duration : 1 h 27 min
Bit rate : 70 b/s
Count of elements : 1462
Stream size : 45.2 KiB (0%)
Title : Completos
Language : Spanish
Default : No
Forced : No


Text [Tienes que estar registrado y conectado para ver este vínculo]
ID : 6
Format : PGS
Muxing mode : zlib
Codec ID : S_HDMV/PGS
Codec ID/Info : Picture based subtitle format used on BDs/HD-DVDs
Duration : 1 h 31 min
Bit rate : 41.6 kb/s
Count of elements : 2962
Stream size : 27.4 MiB (1%)
Language : Spanish
Default : No
Forced : No


Text [Tienes que estar registrado y conectado para ver este vínculo]
ID : 7
Format : UTF-8
Codec ID : S_TEXT/UTF8
Codec ID/Info : UTF-8 Plain Text
Duration : 1 h 26 min
Bit rate : 76 b/s
Count of elements : 1621
Stream size : 48.4 KiB (0%)
Title : Completos
Language : English
Default : No
Forced : No


Menu
00:00:00.000 : en:Chapter 1
00:09:51.925 : en:Chapter 2
00:19:23.204 : en:Chapter 3
00:30:49.264 : en:Chapter 4
00:44:00.304 : en:Chapter 5
00:52:51.168 : en:Chapter 6
01:04:22.609 : en:Chapter 7
01:11:52.767 : en:Chapter 8
01:21:46.151 : en:Chapter 9
01:27:00.340 : en:Chapter 10


Enlaces Descarga
Uptobox - Userscloud - Filebebo - 1fichier - Depositfiles - Wayupload
En algunos servidores (Tusfiles, Filebebo, Userscloud...) es necesario estar registrado para descargar a mayor velocidad.


Enlaces Online
Rapidvideo - Openload - Vidoza - Streamango - Vidlox - Userscloud
Para ver online en Userscloud necesitas estar registrado en su página y usar el navegador Google Chrome


Reproductor
(Rapidvideo)



NOTA: Por favor, si los enlaces están caidos avisa en un comentario para poder resubirlos. Gracias

______________________________________________________
Saludos  Smile
Volver arriba
Permisos de este foro:
No puedes responder a temas en este foro.