Comparte
Ir abajo
avatar
Admin
Administrador
Administrador
Sexo : Masculino
Mensajes : 2217
Puntos : 6759
Reputación : 1322
Fecha de inscripción : 02/04/2012
Localización : España

Drama Pablo, el apóstol de Cristo (2018) [Ver Online] [Descargar] [HD 1080p] [Español - Inglés]

el Dom 10 Jun 2018 - 15:11
Reputación del mensaje :100% (1 voto)

Ficha Técnica
SINOPSIS: Esta es la historia de dos hombres. Lucas, quien, como amigo y médico, arriesga su vida al entrar a Roma para visitar a Pablo, que está preso en la celda más oscura y sombría de la prisión del Emperador Nerón, decidido a terminar con los cristianos. Antes de que se promulgue la sentencia de muerte de Pablo, Lucas decide escribir otro libro, uno que detalla los comienzos de "El Camino" y el nacimiento de lo que se conocerá después como la iglesia. Atado en cadenas, la lucha de Pablo es interna. Ha sobrevivido lo inimaginable: flagelaciones, naufragios, hambre, lapidación, sed y frío, pero mientras espera su cita con la muerte, es perseguido por las sombras de sus acciones del pasado. Solo en la oscuridad, se pregunta si es el fin de su labor... y si tiene la fuerza para terminar la carrera. Dos hombres luchan contra un Emperador obsesionado y la debilidad del espíritu humano para vivir el Evangelio de Jesucristo y difundir su mensaje al mundo.
TÍTULO ORIGINAL: Paul, Apostle of Christ
AÑO: [Tienes que estar registrado y conectado para ver este vínculo]
DURACIÓN: 106 min.
PAÍS:  Estados Unidos
DIRECTOR: Andrew Hyatt
REPARTO: Jim Caviezel, James Faulkner, Olivier Martínez, Joanne Whalley-Kilmer, John Lynch, Antonia Campbell-Hughes, Noah Huntley, Yorgos Karamihos, Alessandro Sperduti, Alexandra Vino, Manuel Cauchi, Anthony Edridge, Mario Opinato, Husam Chadat, Joe Azzopardi
GÉNERO: [Tienes que estar registrado y conectado para ver este vínculo] | [Tienes que estar registrado y conectado para ver este vínculo] [Tienes que estar registrado y conectado para ver este vínculo]

Capturas



Trailer

Info
CALIDAD DE VIDEO: BDRip m1080p MPEG4 Video (H264) 1920x808
CALIDAD DE AUDIO 1: Castellano ac-3 - 5.1 - 640 Kbps
CALIDAD DE AUDIO 2: Inglés AC-3 - 5.1 - 448 Kbps
SUBTITULOS: Incluye completos  en español e inglés y forzados en español.
TAMAÑO: 4.74 GiB
Mediainfo:
Format : Matroska
Format version : Version 4 / Version 2
File size : 4.74 GiB
Duration : 1 h 47 min
Overall bit rate : 6 298 kb/s
Movie name : Pablo, el apóstol de Cristo - [Tienes que estar registrado y conectado para ver este vínculo]
Encoded date : UTC 2018-06-09 20:53:21
Writing application : mkvmerge v23.0.0 ('The Bride Said No') 64-bit
Writing library : libebml v1.3.6 + libmatroska v1.4.9


Video
ID : 1
Format : AVC
Format/Info : Advanced Video Codec
Format profile : High@L4.1
Format settings : CABAC / 2 Ref Frames
Format settings, CABAC : Yes
Format settings, RefFrames : 2 frames
Codec ID : V_MPEG4/ISO/AVC
Duration : 1 h 47 min
Bit rate : 5 210 kb/s
Width : 1 920 pixels
Height : 808 pixels
Display aspect ratio : 2.40:1
Frame rate mode : Constant
Frame rate : 23.976 (24000/1001) FPS
Color space : YUV
Chroma subsampling : 4:2:0
Bit depth : 8 bits
Scan type : Progressive
Bits/(Pixel*Frame) : 0.140
Stream size : 3.92 GiB (83%)
Title : AVC
Writing library : x264 core 142
Encoding settings : cabac=1 / ref=1 / deblock=1👎-1 / analyse=0x3:0 / me=hex / subme=5 / psy=0 / mixed_ref=0 / me_range=16 / chroma_me=1 / trellis=0 / 8x8dct=1 / cqm=0 / deadzone=21,11 / fast_pskip=0 / chroma_qp_offset=0 / threads=16 / lookahead_threads=4 / sliced_threads=0 / nr=0 / decimate=1 / interlaced=0 / bluray_compat=0 / constrained_intra=0 / bframes=2 / b_pyramid=0 / b_adapt=1 / b_bias=0 / direct=1 / weightb=0 / open_gop=0 / weightp=0 / keyint=24 / keyint_min=13 / scenecut=40 / intra_refresh=0 / rc=crf / mbtree=0 / crf=22.0 / qcomp=0.60 / qpmin=0 / qpmax=69 / qpstep=4 / ip_ratio=1.40 / pb_ratio=1.30 / aq=1:1.00
Language : Spanish
Default : Yes
Forced : Yes
Color range : Limited
Color primaries : BT.709
Transfer characteristics : BT.709
Matrix coefficients : BT.709


Audio [Tienes que estar registrado y conectado para ver este vínculo]
ID : 2
Format : AC-3
Format/Info : Audio Coding 3
Format settings, Endianness : Big
Codec ID : A_AC3
Duration : 1 h 47 min
Bit rate mode : Constant
Bit rate : 640 kb/s
Channel(s) : 6 channels
Channel positions : Front: L C R, Side: L R, LFE
Sampling rate : 48.0 kHz
Frame rate : 31.250 FPS (1536 SPF)
Bit depth : 16 bits
Compression mode : Lossy
Delay relative to video : 11 s 509 ms
Stream size : 492 MiB (10%)
Title : AC-3
Language : Spanish
Service kind : Complete Main
Default : Yes
Forced : Yes


Audio [Tienes que estar registrado y conectado para ver este vínculo]
ID : 3
Format : AC-3
Format/Info : Audio Coding 3
Format settings, Endianness : Big
Codec ID : A_AC3
Duration : 1 h 47 min
Bit rate mode : Constant
Bit rate : 448 kb/s
Channel(s) : 6 channels
Channel positions : Front: L C R, Side: L R, LFE
Sampling rate : 48.0 kHz
Frame rate : 31.250 FPS (1536 SPF)
Bit depth : 16 bits
Compression mode : Lossy
Delay relative to video : 11 s 514 ms
Stream size : 345 MiB (7%)
Title : AC-3
Language : English
Service kind : Complete Main
Default : No
Forced : No


Text [Tienes que estar registrado y conectado para ver este vínculo]
ID : 4
Format : UTF-8
Codec ID : S_TEXT/UTF8
Codec ID/Info : UTF-8 Plain Text
Duration : 1 h 40 min
Bit rate : 1 b/s
Count of elements : 20
Stream size : 980 Bytes (0%)
Title : Forzados
Language : Spanish
Default : Yes
Forced : Yes


Text [Tienes que estar registrado y conectado para ver este vínculo]
ID : 5
Format : UTF-8
Codec ID : S_TEXT/UTF8
Codec ID/Info : UTF-8 Plain Text
Duration : 1 h 40 min
Bit rate : 59 b/s
Count of elements : 1232
Stream size : 43.9 KiB (0%)
Title : Completos
Language : Spanish
Default : No
Forced : No


Text [Tienes que estar registrado y conectado para ver este vínculo]
ID : 6
Format : UTF-8
Codec ID : S_TEXT/UTF8
Codec ID/Info : UTF-8 Plain Text
Duration : 1 h 37 min
Bit rate : 57 b/s
Count of elements : 1286
Stream size : 41.0 KiB (0%)
Title : Completos
Language : English
Default : No
Forced : No


Menu
00:00:00.000 : en:00:00:00.000
00:07:46.669 : en:00:07:58.436
00:14:40.333 : en:00:14:52.100
00:22:14.369 : en:00:22:26.136
00:29:14.414 : en:00:29:26.181
00:36:07.535 : en:00:36:19.302
00:40:24.417 : en:00:40:36.184
00:46:47.758 : en:00:46:59.525
00:51:52.688 : en:00:52:04.455
00:55:35.786 : en:00:55:47.553
01:00:26.409 : en:01:00:38.176
01:08:03.824 : en:01:08:15.591
01:19:04.234 : en:01:19:16.001
01:24:07.662 : en:01:24:19.429
01:28:26.838 : en:01:28:38.605
01:34:28.241 : en:01:34:40.008


Enlaces Descarga
Uptobox - Userscloud - 1fichier - Depositfiles - Wayupload
En algunos servidores (Tusfiles, Filebebo, Userscloud...) es necesario estar registrado para descargar a mayor velocidad.


Enlaces Online
OK.ru - Userscloud
Para ver online en Userscloud necesitas estar registrado en su página y usar el navegador Google Chrome


Reproductor
(ok.ru)



NOTA: Por favor, si los enlaces están caidos avisa en un comentario para poder resubirlos. Gracias

______________________________________________________
[Tienes que estar registrado y conectado para ver este vínculo]
Saludos  Smile
Volver arriba
Permisos de este foro:
No puedes responder a temas en este foro.