Comparte
Ir abajo
avatar
Admin
Administrador
Administrador
Sexo : Masculino
Mensajes : 2217
Puntos : 6759
Reputación : 1322
Fecha de inscripción : 02/04/2012
Localización : España

Comedia Alex Strangelove (2018) [Ver Online] [Descargar] [HD 1080p] [Castellano-Inglés] [Comedia]

el Mar 12 Jun 2018 - 18:19
Reputación del mensaje :100% (1 voto)

Ficha Técnica
SINOPSIS: Alex Truelove (Daniel Doheny) está en su último año de instituto y lo tiene todo: buenas notas, una novia (Madeline Weinstein) y una pandilla genial. Todo va sobre ruedas hasta que Alex decide contar que ha decidido decir adiós a la virginidad. Entonces es cuando conoce a Elliott (Antonio Marziale), un encantador chico gay que no se corta en decirle a Alex lo que siente por él… que tal vez sienta lo mismo por él o tal vez no. Embarcado a la fuerza en un emocionante y divertido viaje de descubrimiento sexual y personal, Alex descubre que el amor, como tantas otras cosas cuando uno se hace mayor, puede ser un asunto confuso. Y no pasa nada.
TÍTULO ORIGINAL: Alex Strangelove
AÑO: [Tienes que estar registrado y conectado para ver este vínculo]
DURACIÓN: 99 min.
PAÍS:  Estados Unidos
DIRECTOR: Craig Johnson
REPARTO: Daniel Doheny, Antonio Marziale, Joanna Adler, Isabelle Amara, William Ragsdale, Ayden Mayeri, Nik Dodani, Annie Q., Madeline Weinstein, Daniel Zolghadri, David Fierro, Anthony Pierini, Sophie Faulkenberry
GÉNERO: [Tienes que estar registrado y conectado para ver este vínculo] | [Tienes que estar registrado y conectado para ver este vínculo] [Tienes que estar registrado y conectado para ver este vínculo] [Tienes que estar registrado y conectado para ver este vínculo] [Tienes que estar registrado y conectado para ver este vínculo]

Capturas



Trailer

Info
CALIDAD DE VIDEO: BDRip m1080p MPEG4 Video (H264) 1920x1080
CALIDAD DE AUDIO 1: Castellano ac-3 - 5.1 - 448 Kbps
CALIDAD DE AUDIO 2: Inglés AC-3 - 5.1 - 640 Kbps
SUBTITULOS: Incluye completos  en Español e Inglés y forzados en Español
TAMAÑO: 2.83 GiB
Mediainfo:
Format : Matroska
Format version : Version 4 / Version 2
File size : 2.83 GiB
Duration : 1 h 39 min
Overall bit rate mode : Variable
Overall bit rate : 4 057 kb/s
Movie name : Alex Strangelove - [Tienes que estar registrado y conectado para ver este vínculo]
Encoded date : UTC 2018-06-11 15:36:44
Writing application : mkvmerge v23.0.0 ('The Bride Said No') 64-bit
Writing library : libebml v1.3.6 + libmatroska v1.4.9


Video
ID : 1
Format : AVC
Format/Info : Advanced Video Codec
Format profile : Main@L4
Format settings : CABAC / 3 Ref Frames
Format settings, CABAC : Yes
Format settings, RefFrames : 3 frames
Codec ID : V_MPEG4/ISO/AVC
Duration : 1 h 39 min
Bit rate mode : Variable
Bit rate : 3 010 kb/s
Maximum bit rate : 4 515 kb/s
Width : 1 920 pixels
Height : 1 080 pixels
Display aspect ratio : 16:9
Frame rate mode : Constant
Frame rate : 23.976 (24000/1001) FPS
Color space : YUV
Chroma subsampling : 4:2:0
Bit depth : 8 bits
Scan type : Progressive
Bits/(Pixel*Frame) : 0.061
Stream size : 2.07 GiB (73%)
Title : AVC
Writing library : x264 core 148 r2715 7e75228
Encoding settings : cabac=1 / ref=3 / deblock=1:0:0 / analyse=0x1:0x111 / me=umh / subme=10 / psy=1 / psy_rd=1.00:0.00 / mixed_ref=1 / me_range=24 / chroma_me=1 / trellis=2 / 8x8dct=0 / cqm=0 / deadzone=21,11 / fast_pskip=1 / chroma_qp_offset=-2 / threads=8 / lookahead_threads=1 / sliced_threads=0 / nr=0 / decimate=1 / interlaced=0 / bluray_compat=0 / stitchable=1 / constrained_intra=0 / bframes=2 / b_pyramid=0 / b_adapt=2 / b_bias=0 / direct=3 / weightb=1 / open_gop=0 / weightp=2 / keyint=48 / keyint_min=25 / scenecut=0 / intra_refresh=0 / rc_lookahead=48 / rc=2pass / mbtree=1 / bitrate=3010 / ratetol=1.0 / qcomp=0.50 / qpmin=6 / qpmax=51 / qpstep=4 / cplxblur=20.0 / qblur=0.5 / vbv_maxrate=4515 / vbv_bufsize=6020 / nal_hrd=vbr / filler=0 / ip_ratio=1.40 / aq=1:1.00
Language : Spanish
Default : Yes
Forced : No


Audio [Tienes que estar registrado y conectado para ver este vínculo]
ID : 2
Format : AC-3
Format/Info : Audio Coding 3
Format settings, Endianness : Big
Codec ID : A_AC3
Duration : 1 h 39 min
Bit rate mode : Constant
Bit rate : 448 kb/s
Channel(s) : 6 channels
Channel positions : Front: L C R, Side: L R, LFE
Sampling rate : 48.0 kHz
Frame rate : 31.250 FPS (1536 SPF)
Bit depth : 16 bits
Compression mode : Lossy
Stream size : 319 MiB (11%)
Title : AC-3
Language : Spanish
Service kind : Complete Main
Default : Yes
Forced : No


Audio [Tienes que estar registrado y conectado para ver este vínculo]
ID : 3
Format : AC-3
Format/Info : Audio Coding 3
Format settings, Endianness : Big
Codec ID : A_AC3
Duration : 1 h 39 min
Bit rate mode : Constant
Bit rate : 640 kb/s
Channel(s) : 6 channels
Channel positions : Front: L C R, Side: L R, LFE
Sampling rate : 48.0 kHz
Frame rate : 31.250 FPS (1536 SPF)
Bit depth : 16 bits
Compression mode : Lossy
Stream size : 456 MiB (16%)
Title : AC-3
Language : English
Service kind : Complete Main
Default : No
Forced : No


Text [Tienes que estar registrado y conectado para ver este vínculo]
ID : 4
Format : UTF-8
Codec ID : S_TEXT/UTF8
Codec ID/Info : UTF-8 Plain Text
Duration : 1 h 32 min
Bit rate : 1 b/s
Count of elements : 28
Stream size : 1.01 KiB (0%)
Title : Forzados
Language : Spanish
Default : Yes
Forced : No


Text [Tienes que estar registrado y conectado para ver este vínculo]
ID : 5
Format : UTF-8
Codec ID : S_TEXT/UTF8
Codec ID/Info : UTF-8 Plain Text
Duration : 1 h 34 min
Bit rate : 55 b/s
Count of elements : 1486
Stream size : 38.1 KiB (0%)
Title : Completos
Language : Spanish
Default : No
Forced : No


Text [Tienes que estar registrado y conectado para ver este vínculo]
ID : 6
Format : UTF-8
Codec ID : S_TEXT/UTF8
Codec ID/Info : UTF-8 Plain Text
Duration : 1 h 31 min
Bit rate : 74 b/s
Count of elements : 1654
Stream size : 50.0 KiB (0%)
Title : Completos
Language : English
Default : No
Forced : No


Menu
00:00:00.000 : en:00:00:00.000
00:06:09.661 : en:00:06:09.661
00:11:29.689 : en:00:11:29.689
00:16:16.184 : en:00:16:16.184
00:24:24.380 : en:00:24:24.380
00:31:26.468 : en:00:31:26.468
00:36:21.638 : en:00:36:21.638
00:40:13.828 : en:00:40:13.828
00:44:48.352 : en:00:44:48.352
00:48:09.678 : en:00:48:09.678
00:56:54.703 : en:00:56:54.703
01:02:38.672 : en:01:02:38.672
01:11:13.978 : en:01:11:13.978
01:21:19.416 : en:01:21:19.416
01:25:56.693 : en:01:25:56.693
01:35:07.827 : en:01:35:07.827
01:37:44.901 : en:01:37:44.901
01:42:28.059 : en:01:42:28.059
01:48:40.055 : en:01:48:40.055
01:59:58.775 : en:01:59:58.775


Enlaces Descarga
Tusfiles - Uptobox - Userscloud - 1fichier - Depositfiles - Filebebo - Hitfile - Rapidgator - Turbobit - Wayupload
En algunos servidores (Tusfiles, Filebebo, Userscloud...) es necesario estar registrado para descargar a mayor velocidad.


Enlaces Online
Rapidvideo - Openload - Vidoza - Streamango - Vidlox - Userscloud
Para ver online en Userscloud necesitas estar registrado en su página y usar el navegador Google Chrome


Reproductor
(Rapidvideo)



NOTA: Por favor, si los enlaces están caidos avisa en un comentario para poder resubirlos. Gracias

______________________________________________________
[Tienes que estar registrado y conectado para ver este vínculo]
Saludos  Smile
Volver arriba
Permisos de este foro:
No puedes responder a temas en este foro.