Comparte
Ir abajo
avatar
Admin
Administrador
Administrador
Sexo : Masculino
Mensajes : 1330
Puntos : 4344
Reputación : 1050
Fecha de inscripción : 02/04/2012
Localización : España

Terror El infinito (2017) [Ver Online] [Descargar] [HD 1080p] [Castellano-Inglés] [Terror, C.Ficción]

el Vie 22 Jun 2018 - 22:23
Reputación del mensaje :100% (1 voto)

Ficha Técnica
SINOPSIS: Años atrás, los hermanos Justin y Aaron lograron escapar de la secta donde se habían criado. Ahora, malviven en un apartamento de Los Ángeles, hasta que un día reciben una cinta de vídeo de aquella secta, y a Aaron le entran las dudas de si deberían volver al campamento del que huyeron.
TÍTULO ORIGINAL: The Endless
AÑO: [Tienes que estar registrado y conectado para ver este vínculo]
DURACIÓN: 111 min.
PAÍS:  Estados Unidos
DIRECTOR: Justin Benson,  Aaron Moorhead
REPARTO: Aaron Moorhead,  Justin Benson,  Tate Ellington,  Callie Hernandez,  James Jordan, Lew Temple
GÉNERO: [Tienes que estar registrado y conectado para ver este vínculo] [Tienes que estar registrado y conectado para ver este vínculo] [Tienes que estar registrado y conectado para ver este vínculo] | [Tienes que estar registrado y conectado para ver este vínculo]

Capturas



Trailer

Info
CALIDAD DE VIDEO: BDRip m1080p MPEG4 Video (H264) 1920x804
CALIDAD DE AUDIO 1: Castellano - DTS - 5.1 - 1509 Kbps
CALIDAD DE AUDIO 2: Castellano - AC-3 - 5.1 - 448 Kbps
CALIDAD DE AUDIO 2: Inglés - AC-3 - 5.1 - 448 Kbps
SUBTITULOS: Incluye completos y forzados en Español
TAMAÑO: 5.64 GiB
Mediainfo:
Format                      : Matroska
Format version              : Version 4 / Version 2
File size                   : 5.64 GiB
Duration                    : 1 h 51 min
Overall bit rate            : 7 246 kb/s
Movie name                  : El Infinito - [Tienes que estar registrado y conectado para ver este vínculo]
Encoded date                : UTC 2018-06-22 00:02:32
Writing application         : mkvmerge v23.0.0 ('The Bride Said No') 64-bit
Writing library             : libebml v1.3.6 + libmatroska v1.4.9


Video
ID                          : 1
Format                      : AVC
Format/Info                 : Advanced Video Codec
Format profile              : High@L4.1
Format settings             : CABAC / 2 Ref Frames
Format settings, CABAC      : Yes
Format settings, RefFrames  : 2 frames
Codec ID                    : V_MPEG4/ISO/AVC
Duration                    : 1 h 51 min
Bit rate                    : 4 832 kb/s
Width                       : 1 920 pixels
Height                      : 804 pixels
Display aspect ratio        : 2.40:1
Frame rate mode             : Constant
Frame rate                  : 24.000 FPS
Color space                 : YUV
Chroma subsampling          : 4:2:0
Bit depth                   : 8 bits
Scan type                   : Progressive
Bits/(Pixel*Frame)          : 0.130
Stream size                 : 3.76 GiB (67%)
Title                       : AVC
Writing library             : x264 core 142
Encoding settings           : cabac=1 / ref=1 / deblock=1👎-1 / analyse=0x3:0 / me=hex / subme=5 / psy=0 / mixed_ref=0 / me_range=16 / chroma_me=1 / trellis=0 / 8x8dct=1 / cqm=0 / deadzone=21,11 / fast_pskip=0 / chroma_qp_offset=0 / threads=16 / lookahead_threads=4 / sliced_threads=0 / nr=0 / decimate=1 / interlaced=0 / bluray_compat=0 / constrained_intra=0 / bframes=2 / b_pyramid=0 / b_adapt=1 / b_bias=0 / direct=1 / weightb=0 / open_gop=0 / weightp=0 / keyint=24 / keyint_min=13 / scenecut=40 / intra_refresh=0 / rc=2pass / mbtree=0 / bitrate=4832 / ratetol=1.0 / qcomp=0.60 / qpmin=0 / qpmax=69 / qpstep=4 / cplxblur=20.0 / qblur=0.5 / ip_ratio=1.40 / pb_ratio=1.30 / aq=1:1.00
Language                    : Spanish
Default                     : Yes
Forced                      : No
Color range                 : Limited
Color primaries             : BT.709
Transfer characteristics    : BT.709
Matrix coefficients         : BT.709


Audio [Tienes que estar registrado y conectado para ver este vínculo]
ID                          : 2
Format                      : DTS
Format/Info                 : Digital Theater Systems
Mode                        : 16
Format settings, Endianness : Big
Codec ID                    : A_DTS
Duration                    : 1 h 51 min
Bit rate mode               : Constant
Bit rate                    : 1 509 kb/s
Channel(s)                  : 6 channels
Channel positions           : Front: L C R, Side: L R, LFE
Sampling rate               : 48.0 kHz
Frame rate                  : 93.750 FPS (512 SPF)
Bit depth                   : 24 bits
Compression mode            : Lossy
Stream size                 : 1.17 GiB (21%)
Title                       : DTS
Language                    : Spanish
Default                     : No
Forced                      : No


Audio [Tienes que estar registrado y conectado para ver este vínculo]
ID                          : 3
Format                      : AC-3
Format/Info                 : Audio Coding 3
Format settings, Endianness : Big
Codec ID                    : A_AC3
Duration                    : 1 h 51 min
Bit rate mode               : Constant
Bit rate                    : 448 kb/s
Channel(s)                  : 6 channels
Channel positions           : Front: L C R, Side: L R, LFE
Sampling rate               : 48.0 kHz
Frame rate                  : 31.250 FPS (1536 SPF)
Bit depth                   : 16 bits
Compression mode            : Lossy
Stream size                 : 357 MiB (6%)
Title                       : AC-3
Language                    : Spanish
Service kind                : Complete Main
Default                     : Yes
Forced                      : No


Audio [Tienes que estar registrado y conectado para ver este vínculo]
ID                          : 4
Format                      : AC-3
Format/Info                 : Audio Coding 3
Format settings, Endianness : Big
Codec ID                    : A_AC3
Duration                    : 1 h 51 min
Bit rate mode               : Constant
Bit rate                    : 448 kb/s
Channel(s)                  : 6 channels
Channel positions           : Front: L C R, Side: L R, LFE
Sampling rate               : 48.0 kHz
Frame rate                  : 31.250 FPS (1536 SPF)
Bit depth                   : 16 bits
Compression mode            : Lossy
Stream size                 : 357 MiB (6%)
Title                       : AC-3
Language                    : English
Service kind                : Complete Main
Default                     : No
Forced                      : No


Text [Tienes que estar registrado y conectado para ver este vínculo]
ID                          : 5
Format                      : UTF-8
Codec ID                    : S_TEXT/UTF8
Codec ID/Info               : UTF-8 Plain Text
Duration                    : 1 h 49 min
Bit rate                    : 1 b/s
Count of elements           : 31
Stream size                 : 1 019 Bytes (0%)
Title                       : Forzados
Language                    : Spanish
Default                     : Yes
Forced                      : No


Text [Tienes que estar registrado y conectado para ver este vínculo]
ID                          : 6
Format                      : UTF-8
Codec ID                    : S_TEXT/UTF8
Codec ID/Info               : UTF-8 Plain Text
Duration                    : 1 h 51 min
Bit rate                    : 47 b/s
Count of elements           : 1159
Stream size                 : 39.0 KiB (0%)
Title                       : Completos
Language                    : Spanish
Default                     : No
Forced                      : No


Text [Tienes que estar registrado y conectado para ver este vínculo]
ID                          : 7
Format                      : PGS
Muxing mode                 : zlib
Codec ID                    : S_HDMV/PGS
Codec ID/Info               : Picture based subtitle format used on BDs/HD-DVDs
Duration                    : 1 h 51 min
Bit rate                    : 30.6 kb/s
Count of elements           : 2322
Stream size                 : 24.3 MiB (0%)
Title                       : Completos PGS
Language                    : Spanish
Default                     : No
Forced                      : No


Menu
00:00:00.000                : en:00:00:00.000
00:06:27.833                : en:00:06:27.833
00:13:14.875                : en:00:13:14.875
00:20:40.875                : en:00:20:40.875
00:27:18.833                : en:00:27:18.833
00:34:47.500                : en:00:34:47.500
00:41:36.625                : en:00:41:36.625
00:47:47.000                : en:00:47:47.000
00:55:59.083                : en:00:55:59.083
01:02:50.583                : en:01:02:50.583
01:08:07.292                : en:01:08:07.292
01:16:44.250                : en:01:16:44.250
01:24:00.708                : en:01:24:00.708
01:31:21.042                : en:01:31:21.042
01:37:53.917                : en:01:37:53.917
01:47:15.875                : en:01:47:15.875


Enlaces Descarga
Tusfiles - Uptobox - Userscloud - 1fichier - Depositfiles - Wayupload
En algunos servidores (Tusfiles, Filebebo, Userscloud...) es necesario estar registrado para descargar a mayor velocidad.


Enlaces Online
Rapidvideo - Openload - Vidoza - Streamango - Vidlox - Userscloud
Para ver online en Userscloud necesitas estar registrado en su página y usar el navegador Google Chrome


Reproductor
(Rapidvideo)



NOTA: Por favor, si los enlaces están caidos avisa en un comentario para poder resubirlos. Gracias

______________________________________________________
Saludos  Smile
Volver arriba
Permisos de este foro:
No puedes responder a temas en este foro.