Comparte
Ir abajo
avatar
Admin
Administrador
Administrador
Sexo : Masculino
Mensajes : 1897
Puntos : 5823
Reputación : 1224
Fecha de inscripción : 02/04/2012
Localización : España

Thriller Baby Driver (2017) [Ver Online] [Descargar] [HD 1080p] [Castellano-Inglés] [Thriller]

el Sáb 23 Jun 2018 - 22:04
Reputación del mensaje :100% (1 voto)

Ficha Técnica
SINOPSIS: Baby (Ansel Elgort), un joven y talentoso conductor especializado en fugas, depende del ritmo de su banda sonora personal para ser el mejor en lo suyo. Cuando conoce a la chica de sus sueños (Lily James), Baby ve una oportunidad para abandonar su vida criminal y realizar una huida limpia. Pero después de ser forzado a trabajar para un jefe de una banda criminal (Kevin Spacey), deberá dar la cara cuando un golpe malogrado amenace su vida, su amor y su libertad.
TÍTULO ORIGINAL: Baby Driver
AÑO: [Tienes que estar registrado y conectado para ver este vínculo]
DURACIÓN: 115 min.
PAÍS:  Reino Unido
DIRECTOR: Edgar Wright
REPARTO: Ansel Elgort,  Lily James,  Jamie Foxx,  Jon Hamm,  Kevin Spacey,  Eiza González, Jon Bernthal,  Ben VanderMey,  Thurman Sewell,  Allison King,  Lance Palmer, Keith Hudson,  Patrick R. Walker,  Hudson Meek,  Troy Faruk
GÉNERO: [Tienes que estar registrado y conectado para ver este vínculo] [Tienes que estar registrado y conectado para ver este vínculo] [Tienes que estar registrado y conectado para ver este vínculo] | [Tienes que estar registrado y conectado para ver este vínculo] [Tienes que estar registrado y conectado para ver este vínculo] & [Tienes que estar registrado y conectado para ver este vínculo] [Tienes que estar registrado y conectado para ver este vínculo] / [Tienes que estar registrado y conectado para ver este vínculo]

Capturas



Trailer

Info
CALIDAD DE VIDEO: BDRip m1080p MPEG4 Video (H264) 1920x800
CALIDAD DE AUDIO 1: Castellano - DTS - 5.1 - 1509 Kbps
CALIDAD DE AUDIO 2: Castellano - AC-3 - 5.1 - 448 Kbps
CALIDAD DE AUDIO 3: Inglés - AC-3 - 5.1 - 448 Kbps
SUBTITULOS: Incluye completos en Español e Inglés y forzados en Español
TAMAÑO: 5.37 GiB
Mediainfo:
Format                      : Matroska
Format version              : Version 4 / Version 2
File size                   : 5.37 GiB
Duration                    : 1 h 52 min
Overall bit rate            : 6 829 kb/s
Movie name                  : Baby Driver - [Tienes que estar registrado y conectado para ver este vínculo]
Encoded date                : UTC 2018-06-23 13:40:29
Writing application         : mkvmerge v23.0.0 ('The Bride Said No') 64-bit
Writing library             : libebml v1.3.6 + libmatroska v1.4.9


Video
ID                          : 1
Format                      : AVC
Format/Info                 : Advanced Video Codec
Format profile              : High@L4.1
Format settings             : CABAC / 5 Ref Frames
Format settings, CABAC      : Yes
Format settings, RefFrames  : 5 frames
Codec ID                    : V_MPEG4/ISO/AVC
Duration                    : 1 h 52 min
Bit rate                    : 4 402 kb/s
Width                       : 1 920 pixels
Height                      : 800 pixels
Display aspect ratio        : 2.40:1
Frame rate mode             : Constant
Frame rate                  : 23.976 (24000/1001) FPS
Color space                 : YUV
Chroma subsampling          : 4:2:0
Bit depth                   : 8 bits
Scan type                   : Progressive
Bits/(Pixel*Frame)          : 0.120
Stream size                 : 3.46 GiB (64%)
Title                       : AVC
Writing library             : x264 core 150 r2833 df79067
Encoding settings           : cabac=1 / ref=5 / deblock=1👎-1 / analyse=0x3:0x133 / me=umh / subme=9 / psy=1 / psy_rd=1.00:0.15 / mixed_ref=1 / me_range=24 / chroma_me=1 / trellis=2 / 8x8dct=1 / cqm=0 / deadzone=21,11 / fast_pskip=0 / chroma_qp_offset=-3 / threads=12 / lookahead_threads=1 / sliced_threads=0 / nr=250 / decimate=1 / interlaced=0 / bluray_compat=0 / constrained_intra=0 / bframes=3 / b_pyramid=2 / b_adapt=2 / b_bias=0 / direct=3 / weightb=1 / open_gop=0 / weightp=2 / keyint=250 / keyint_min=23 / scenecut=40 / intra_refresh=0 / rc_lookahead=60 / rc=2pass / mbtree=1 / bitrate=4402 / ratetol=1.0 / qcomp=0.60 / qpmin=0 / qpmax=69 / qpstep=4 / cplxblur=20.0 / qblur=0.5 / ip_ratio=1.40 / aq=1:1.00
Language                    : English
Default                     : Yes
Forced                      : No


Audio [Tienes que estar registrado y conectado para ver este vínculo]
ID                          : 2
Format                      : DTS
Format/Info                 : Digital Theater Systems
Mode                        : 16
Format settings, Endianness : Big
Codec ID                    : A_DTS
Duration                    : 1 h 52 min
Bit rate mode               : Constant
Bit rate                    : 1 509 kb/s
Channel(s)                  : 6 channels
Channel positions           : Front: L C R, Side: L R, LFE
Sampling rate               : 48.0 kHz
Frame rate                  : 93.750 FPS (512 SPF)
Bit depth                   : 16 bits
Compression mode            : Lossy
Stream size                 : 1.19 GiB (22%)
Title                       : DTS
Language                    : Spanish
Default                     : No
Forced                      : No


Audio [Tienes que estar registrado y conectado para ver este vínculo]
ID                          : 3
Format                      : AC-3
Format/Info                 : Audio Coding 3
Format settings, Endianness : Big
Codec ID                    : A_AC3
Duration                    : 1 h 52 min
Bit rate mode               : Constant
Bit rate                    : 448 kb/s
Channel(s)                  : 6 channels
Channel positions           : Front: L C R, Side: L R, LFE
Sampling rate               : 48.0 kHz
Frame rate                  : 31.250 FPS (1536 SPF)
Bit depth                   : 16 bits
Compression mode            : Lossy
Stream size                 : 361 MiB (7%)
Title                       : AC-3
Language                    : Spanish
Service kind                : Complete Main
Default                     : Yes
Forced                      : No


Audio [Tienes que estar registrado y conectado para ver este vínculo]
ID                          : 4
Format                      : AC-3
Format/Info                 : Audio Coding 3
Format settings, Endianness : Big
Codec ID                    : A_AC3
Duration                    : 1 h 52 min
Bit rate mode               : Constant
Bit rate                    : 448 kb/s
Channel(s)                  : 6 channels
Channel positions           : Front: L C R, Side: L R, LFE
Sampling rate               : 48.0 kHz
Frame rate                  : 31.250 FPS (1536 SPF)
Bit depth                   : 16 bits
Compression mode            : Lossy
Stream size                 : 361 MiB (7%)
Title                       : AC-3
Language                    : English
Service kind                : Complete Main
Default                     : No
Forced                      : No


Text [Tienes que estar registrado y conectado para ver este vínculo]
ID                          : 5
Format                      : UTF-8
Codec ID                    : S_TEXT/UTF8
Codec ID/Info               : UTF-8 Plain Text
Duration                    : 1 h 38 min
Bit rate                    : 1 b/s
Count of elements           : 50
Stream size                 : 1.13 KiB (0%)
Title                       : Forzados
Language                    : Spanish
Default                     : Yes
Forced                      : Yes


Text [Tienes que estar registrado y conectado para ver este vínculo]
ID                          : 6
Format                      : PGS
Muxing mode                 : zlib
Codec ID                    : S_HDMV/PGS
Codec ID/Info               : Picture based subtitle format used on BDs/HD-DVDs
Duration                    : 1 h 50 min
Bit rate                    : 37.9 kb/s
Count of elements           : 2622
Stream size                 : 29.8 MiB (1%)
Language                    : Spanish
Default                     : No
Forced                      : No


Text [Tienes que estar registrado y conectado para ver este vínculo]
ID                          : 7
Format                      : UTF-8
Codec ID                    : S_TEXT/UTF8
Codec ID/Info               : UTF-8 Plain Text
Duration                    : 1 h 49 min
Bit rate                    : 63 b/s
Count of elements           : 1592
Stream size                 : 50.6 KiB (0%)
Title                       : Completos
Language                    : Spanish
Default                     : No
Forced                      : No


Text [Tienes que estar registrado y conectado para ver este vínculo]
ID                          : 8
Format                      : UTF-8
Codec ID                    : S_TEXT/UTF8
Codec ID/Info               : UTF-8 Plain Text
Duration                    : 1 h 51 min
Bit rate                    : 83 b/s
Count of elements           : 2163
Stream size                 : 68.2 KiB (0%)
Title                       : Completos
Language                    : English
Default                     : No
Forced                      : No


Menu
00:00:00.000                : :Chapter 1
00:09:11.051                : :Chapter 2
00:13:29.809                : :Chapter 3
00:20:58.174                : :Chapter 4
00:25:17.599                : :Chapter 5
00:33:07.903                : :Chapter 6
00:43:43.246                : :Chapter 7
00:48:15.643                : :Chapter 8
00:53:39.550                : :Chapter 9
00:58:51.903                : :Chapter 10
01:05:23.545                : :Chapter 11
01:11:33.748                : :Chapter 12
01:19:16.543                : :Chapter 13
01:30:30.675                : :Chapter 14
01:38:04.170                : :Chapter 15
01:43:29.620                : :Chapter 16


Enlaces Descarga
1fichier - Uptobox - Userscloud - Depositfiles - Wayupload
En algunos servidores (Tusfiles, Filebebo, Userscloud...) es necesario estar registrado para descargar a mayor velocidad.


Enlaces Online
Rapidvideo - Openload - Vidoza - Streamango - Vidlox - Userscloud
Para ver online en Userscloud necesitas estar registrado en su página y usar el navegador Google Chrome


Reproductor
(Rapidvideo)



NOTA: Por favor, si los enlaces están caidos avisa en un comentario para poder resubirlos. Gracias

______________________________________________________
[Tienes que estar registrado y conectado para ver este vínculo]
Saludos  Smile
Volver arriba
Permisos de este foro:
No puedes responder a temas en este foro.