Comparte
Ir abajo
avatar
Admin
Administrador
Administrador
Sexo : Masculino
Mensajes : 1900
Puntos : 5826
Reputación : 1224
Fecha de inscripción : 02/04/2012
Localización : España

Drama Brain on Fire (2016) [Ver Online] [Descargar] [HD 1080p] [Castellano-Inglés] [Drama]

el Dom 24 Jun 2018 - 23:07
Reputación del mensaje :100% (1 voto)

Ficha Técnica
SINOPSIS: Una joven periodista aquejada de convulsiones, psicosis y pérdidas de memoria visita a un médico tras otro en busca de un diagnóstico que parece esquivarla.
TÍTULO ORIGINAL: Brain on Fire
AÑO: [Tienes que estar registrado y conectado para ver este vínculo]
DURACIÓN: 95 min.
PAÍS:  Canadá
DIRECTOR: Gerard Barrett
REPARTO: Chloë Grace Moretz, Richard Armitage, Carrie-Anne Moss, Thomas Mann, Nicole LaPlaca, Agam Darshi, Jessie Fraser, Alex Zahara, Robert Moloney, Ken Tremblett, Jenn MacLean-Angus, Elizabeth Bowen, Lindsay Navarro, Jenny Slate, Tyler Perry, Navid Negahban, Vincent Gale
GÉNERO: [Tienes que estar registrado y conectado para ver este vínculo] | [Tienes que estar registrado y conectado para ver este vínculo] Basado en hechos reales

Capturas



Trailer

Info
CALIDAD DE VIDEO: BDRip m1080p MPEG4 Video (H264) 1920x804
CALIDAD DE AUDIO 2: Castellano - AC-3 - 2 canales - 448 Kbps
CALIDAD DE AUDIO 3: Inglés - AC-3 - 5.1 - 448 Kbps
SUBTITULOS: Incluye completos en Español e Inglés y forzados en Español
TAMAÑO: 4.12 GiB
Mediainfo:
Format : Matroska
Format version : Version 4 / Version 2
File size : 4.12 GiB
Duration : 1 h 30 min
Overall bit rate : 6 546 kb/s
Movie name : Mente en llamas - [Tienes que estar registrado y conectado para ver este vínculo]
Encoded date : UTC 2018-06-24 10:04:34
Writing application : mkvmerge v23.0.0 ('The Bride Said No') 64-bit
Writing library : libebml v1.3.6 + libmatroska v1.4.9


Video
ID : 1
Format : AVC
Format/Info : Advanced Video Codec
Format profile : High@L4.1
Format settings : CABAC / 2 Ref Frames
Format settings, CABAC : Yes
Format settings, RefFrames : 2 frames
Codec ID : V_MPEG4/ISO/AVC
Duration : 1 h 28 min
Bit rate : 5 719 kb/s
Width : 1 920 pixels
Height : 804 pixels
Display aspect ratio : 2.40:1
Frame rate mode : Constant
Frame rate : 23.976 (24000/1001) FPS
Color space : YUV
Chroma subsampling : 4:2:0
Bit depth : 8 bits
Scan type : Progressive
Bits/(Pixel*Frame) : 0.155
Stream size : 3.55 GiB (86%)
Title : AVC
Writing library : x264 core 142
Encoding settings : cabac=1 / ref=1 / deblock=1👎-1 / analyse=0x3:0 / me=hex / subme=5 / psy=0 / mixed_ref=0 / me_range=16 / chroma_me=1 / trellis=0 / 8x8dct=1 / cqm=0 / deadzone=21,11 / fast_pskip=0 / chroma_qp_offset=0 / threads=16 / lookahead_threads=4 / sliced_threads=0 / nr=0 / decimate=1 / interlaced=0 / bluray_compat=0 / constrained_intra=0 / bframes=2 / b_pyramid=0 / b_adapt=1 / b_bias=0 / direct=1 / weightb=0 / open_gop=0 / weightp=0 / keyint=24 / keyint_min=13 / scenecut=40 / intra_refresh=0 / rc=crf / mbtree=0 / crf=21.0 / qcomp=0.60 / qpmin=0 / qpmax=69 / qpstep=4 / ip_ratio=1.40 / pb_ratio=1.30 / aq=1:1.00
Language : Spanish
Default : Yes
Forced : No
Color range : Limited
Color primaries : BT.709
Transfer characteristics : BT.709
Matrix coefficients : BT.709


Audio [Tienes que estar registrado y conectado para ver este vínculo]
ID : 2
Format : AC-3
Format/Info : Audio Coding 3
Format settings, Endianness : Big
Codec ID : A_AC3
Duration : 1 h 30 min
Bit rate mode : Constant
Bit rate : 448 kb/s
Channel(s) : 2 channels
Channel positions : Front: L R
Sampling rate : 48.0 kHz
Frame rate : 31.250 FPS (1536 SPF)
Bit depth : 16 bits
Compression mode : Lossy
Stream size : 288 MiB (7%)
Title : AC-3
Language : Spanish
Service kind : Complete Main
Default : Yes
Forced : No


Audio [Tienes que estar registrado y conectado para ver este vínculo]
ID : 3
Format : AC-3
Format/Info : Audio Coding 3
Format settings, Endianness : Big
Codec ID : A_AC3
Duration : 1 h 28 min
Bit rate mode : Constant
Bit rate : 448 kb/s
Channel(s) : 6 channels
Channel positions : Front: L C R, Side: L R, LFE
Sampling rate : 48.0 kHz
Frame rate : 31.250 FPS (1536 SPF)
Bit depth : 16 bits
Compression mode : Lossy
Stream size : 285 MiB (7%)
Title : AC-3
Language : English
Service kind : Complete Main
Default : No
Forced : No


Text [Tienes que estar registrado y conectado para ver este vínculo]
ID : 4
Format : UTF-8
Codec ID : S_TEXT/UTF8
Codec ID/Info : UTF-8 Plain Text
Duration : 1 h 24 min
Bit rate : 1 b/s
Count of elements : 32
Stream size : 1 002 Bytes (0%)
Title : Forzados
Language : Spanish
Default : Yes
Forced : No


Text [Tienes que estar registrado y conectado para ver este vínculo]
ID : 5
Format : UTF-8
Codec ID : S_TEXT/UTF8
Codec ID/Info : UTF-8 Plain Text
Duration : 1 h 24 min
Bit rate : 70 b/s
Count of elements : 1235
Stream size : 43.6 KiB (0%)
Title : Completos
Language : Spanish
Default : No
Forced : No


Text [Tienes que estar registrado y conectado para ver este vínculo]
ID : 6
Format : UTF-8
Codec ID : S_TEXT/UTF8
Codec ID/Info : UTF-8 Plain Text
Duration : 1 h 23 min
Bit rate : 61 b/s
Count of elements : 1509
Stream size : 37.6 KiB (0%)
Title : Completos
Language : English
Default : No
Forced : No


Menu
00:00:00.000 : en:Chapter 01
00:07:17.145 : en:Chapter 02
00:14:12.643 : en:Chapter 03
00:20:52.793 : en:Chapter 04
00:30:01.967 : en:Chapter 05
00:38:05.408 : en:Chapter 06
00:51:21.328 : en:Chapter 07
00:58:53.947 : en:Chapter 08
01:06:15.388 : en:Chapter 09
01:12:22.421 : en:Chapter 10
01:17:56.380 : en:Chapter 11
01:23:35.427 : en:Chapter 12


Enlaces Descarga
Tusfiles - Uptobox - Userscloud - 1fichier - Depositfiles - Rapidgator - Wayupload
En algunos servidores (Tusfiles, Filebebo, Userscloud...) es necesario estar registrado para descargar a mayor velocidad.


Enlaces Online
Rapidvideo - Openload - Vidoza - Vidlox - Userscloud
Para ver online en Userscloud necesitas estar registrado en su página y usar el navegador Google Chrome


Reproductor
(Rapidvideo)



NOTA: Por favor, si los enlaces están caidos avisa en un comentario para poder resubirlos. Gracias

______________________________________________________
[Tienes que estar registrado y conectado para ver este vínculo]
Saludos  Smile
Volver arriba
Permisos de este foro:
No puedes responder a temas en este foro.