Comparte
Ir abajo
avatar
Admin
Administrador
Administrador
Sexo : Masculino
Mensajes : 1344
Puntos : 4374
Reputación : 1056
Fecha de inscripción : 02/04/2012
Localización : España

Drama Destinos (2017) [Ver Online] [Descargar] [HD 1080p] [Castellano-Búlgaro] [Drama]

el Dom 24 Jun 2018 - 23:50
Reputación del mensaje :100% (1 voto)

Ficha Técnica
SINOPSIS: En una reunión con su banquero, el dueño de un pequeño negocio, que se gana la vida conduciendo un taxi, descubre que tiene que pagar un soborno para obtener un préstamo. El comité que revisó su queja de extorsión ahora quiere cobrárselo. Fuera de sus casillas, dispara al banquero y se dispara a sí mismo. El incidente causa revuelo a nivel nacional, cuestionando el desencanto de la sociedad. Mientras tanto, seis taxistas y sus pasajeros se desplazan en la noche, cada uno de ellos con la esperanza de encontrar un futuro mejor.
TÍTULO ORIGINAL: Posoki (Directions)
AÑO: [Tienes que estar registrado y conectado para ver este vínculo]
DURACIÓN: 103 min.
PAÍS:  Bulgaria
DIRECTOR: Stephan Komandarev
REPARTO: Ivan Barnev,  Georgi Kadurin,  Borislava Stratieva,  Anna Komandareva, Vassil Vassilev
GÉNERO: [Tienes que estar registrado y conectado para ver este vínculo]

Capturas



Trailer

Info
CALIDAD DE VIDEO: BDRip m1080p MPEG4 Video (H264) 1920x812
CALIDAD DE AUDIO 1: Castellano - AC-3 - 5.1 - 448 Kbps
CALIDAD DE AUDIO 2: Búlgaro - AC-3 - 5.1 - 384 Kbps
SUBTITULOS: Incluye completos en Español
TAMAÑO: 4.96 GiB
Mediainfo:
Format                      : Matroska
Format version              : Version 4 / Version 2
File size                   : 4.96 GiB
Duration                    : 1 h 43 min
Overall bit rate            : 6 871 kb/s
Movie name                  : Destinos - [Tienes que estar registrado y conectado para ver este vínculo]
Encoded date                : UTC 2018-06-23 21:10:21
Writing application         : mkvmerge v23.0.0 ('The Bride Said No') 64-bit
Writing library             : libebml v1.3.6 + libmatroska v1.4.9


Video
ID                          : 1
Format                      : AVC
Format/Info                 : Advanced Video Codec
Format profile              : High@L4.1
Format settings             : CABAC / 5 Ref Frames
Format settings, CABAC      : Yes
Format settings, RefFrames  : 5 frames
Codec ID                    : V_MPEG4/ISO/AVC
Duration                    : 1 h 43 min
Bit rate                    : 6 036 kb/s
Width                       : 1 920 pixels
Height                      : 812 pixels
Display aspect ratio        : 2.35:1
Frame rate mode             : Constant
Frame rate                  : 25.000 FPS
Color space                 : YUV
Chroma subsampling          : 4:2:0
Bit depth                   : 8 bits
Scan type                   : Progressive
Bits/(Pixel*Frame)          : 0.155
Stream size                 : 4.36 GiB (88%)
Title                       : AVC
Writing library             : x264 core 152 r2851 ba24899
Encoding settings           : cabac=1 / ref=5 / deblock=1:-3:-3 / analyse=0x3:0x113 / me=umh / subme=11 / psy=1 / psy_rd=1.10:0.05 / mixed_ref=1 / me_range=48 / chroma_me=1 / trellis=2 / 8x8dct=1 / cqm=0 / deadzone=21,11 / fast_pskip=0 / chroma_qp_offset=-3 / threads=25 / lookahead_threads=2 / sliced_threads=0 / nr=0 / decimate=1 / interlaced=0 / bluray_compat=0 / constrained_intra=0 / bframes=5 / b_pyramid=2 / b_adapt=2 / b_bias=0 / direct=1 / weightb=1 / open_gop=0 / weightp=2 / keyint=250 / keyint_min=25 / scenecut=40 / intra_refresh=0 / rc_lookahead=45 / rc=crf / mbtree=1 / crf=20.3 / qcomp=0.70 / qpmin=0 / qpmax=69 / qpstep=4 / vbv_maxrate=62500 / vbv_bufsize=78125 / crf_max=0.0 / nal_hrd=none / filler=0 / ip_ratio=1.40 / aq=1:1.10
Language                    : Spanish
Default                     : Yes
Forced                      : No


Audio [Tienes que estar registrado y conectado para ver este vínculo]
ID                          : 2
Format                      : AC-3
Format/Info                 : Audio Coding 3
Format settings, Endianness : Big
Codec ID                    : A_AC3
Duration                    : 1 h 43 min
Bit rate mode               : Constant
Bit rate                    : 448 kb/s
Channel(s)                  : 6 channels
Channel positions           : Front: L C R, Side: L R, LFE
Sampling rate               : 48.0 kHz
Frame rate                  : 31.250 FPS (1536 SPF)
Bit depth                   : 16 bits
Compression mode            : Lossy
Stream size                 : 331 MiB (7%)
Title                       : AC-3
Language                    : Spanish
Service kind                : Complete Main
Default                     : Yes
Forced                      : No


Audio [Tienes que estar registrado y conectado para ver este vínculo]
ID                          : 3
Format                      : AC-3
Format/Info                 : Audio Coding 3
Format settings, Endianness : Big
Codec ID                    : A_AC3
Duration                    : 1 h 43 min
Bit rate mode               : Constant
Bit rate                    : 384 kb/s
Channel(s)                  : 6 channels
Channel positions           : Front: L C R, Side: L R, LFE
Sampling rate               : 48.0 kHz
Frame rate                  : 31.250 FPS (1536 SPF)
Bit depth                   : 16 bits
Compression mode            : Lossy
Stream size                 : 284 MiB (6%)
Title                       : AC-3
Language                    : Bulgarian
Service kind                : Complete Main
Default                     : No
Forced                      : No


Text
ID                          : 4
Format                      : UTF-8
Codec ID                    : S_TEXT/UTF8
Codec ID/Info               : UTF-8 Plain Text
Duration                    : 1 h 37 min
Bit rate                    : 54 b/s
Count of elements           : 968
Stream size                 : 38.5 KiB (0%)
Title                       : Completos
Language                    : Spanish
Default                     : No
Forced                      : No


Enlaces Descarga
Tusfiles - Uptobox - Userscloud - 1fichier - Depositfiles - Megaup - Rapidgator - Wayupload
En algunos servidores (Tusfiles, Filebebo, Userscloud...) es necesario estar registrado para descargar a mayor velocidad.


Enlaces Online
Rapidvideo - Openload - Vidoza - Streamango - Vidlox - Userscloud
Para ver online en Userscloud necesitas estar registrado en su página y usar el navegador Google Chrome


Reproductor
(Rapidvideo)



NOTA: Por favor, si los enlaces están caidos avisa en un comentario para poder resubirlos. Gracias

______________________________________________________
Saludos  Smile
Volver arriba
Permisos de este foro:
No puedes responder a temas en este foro.