Comparte
Ir abajo
avatar
Admin
Administrador
Administrador
Sexo : Masculino
Mensajes : 1169
Puntos : 3971
Reputación : 976
Fecha de inscripción : 02/04/2012
Localización : España

Animación Cavernícola (2018) [Ver Online] [Descargar] [HD 1080p] [Español-Inglés] [Animación]

el Lun 25 Jun 2018 - 0:21
Reputación del mensaje :100% (1 voto)

Ficha Técnica
SINOPSIS: Nueva producción de los creadores de "Wallace y Gromit", que narra la historia de Dug, que junto con su amigo Cerdog, unen a su tribu en contra del archienemigo Lord Nooth y su Ciudad de la Era del Bronce para salvar su hogar. De paso, enseña a su grupo de cavernícolas a jugar al fútbol.
TÍTULO ORIGINAL: Early Man
AÑO: [Tienes que estar registrado y conectado para ver este vínculo]
DURACIÓN: 89 min.
PAÍS:  Reino Unido
DIRECTOR: Nick Park
REPARTO: Animation
GÉNERO: [Tienes que estar registrado y conectado para ver este vínculo] [Tienes que estar registrado y conectado para ver este vínculo] | [Tienes que estar registrado y conectado para ver este vínculo] Stop Motion [Tienes que estar registrado y conectado para ver este vínculo] [Tienes que estar registrado y conectado para ver este vínculo] [Tienes que estar registrado y conectado para ver este vínculo]

Capturas



Trailer

Info
CALIDAD DE VIDEO: BDRip m1080p MPEG4 Video (H264) 1920x1040
CALIDAD DE AUDIO 1: Castellano - AC-3 - 5.1 - 448 Kbps
CALIDAD DE AUDIO 2: Inglés - AC-3 - 5.1 - 448 Kbps
SUBTITULOS: Incluye completos en Español e Inglés y forzados en Español
TAMAÑO: 4.53 GiB
Mediainfo:
Format                      : Matroska
Format version              : Version 4 / Version 2
File size                   : 4.53 GiB
Duration                    : 1 h 28 min
Overall bit rate            : 7 311 kb/s
Movie name                  : Cavernícolas - [Tienes que estar registrado y conectado para ver este vínculo]
Encoded date                : UTC 2018-06-24 15:34:29
Writing application         : mkvmerge v23.0.0 ('The Bride Said No') 64-bit
Writing library             : libebml v1.3.6 + libmatroska v1.4.9


Video
ID                          : 1
Format                      : AVC
Format/Info                 : Advanced Video Codec
Format profile              : High@L4.1
Format settings             : CABAC / 4 Ref Frames
Format settings, CABAC      : Yes
Format settings, RefFrames  : 4 frames
Codec ID                    : V_MPEG4/ISO/AVC
Duration                    : 1 h 28 min
Bit rate                    : 6 415 kb/s
Width                       : 1 920 pixels
Height                      : 1 040 pixels
Display aspect ratio        : 1.85:1
Frame rate mode             : Constant
Frame rate                  : 23.976 (24000/1001) FPS
Color space                 : YUV
Chroma subsampling          : 4:2:0
Bit depth                   : 8 bits
Scan type                   : Progressive
Bits/(Pixel*Frame)          : 0.134
Stream size                 : 3.97 GiB (88%)
Title                       : AVC
Writing library             : x264 core 155 r2901 7d0ff22
Encoding settings           : cabac=1 / ref=4 / deblock=1:0:0 / analyse=0x3:0x133 / me=umh / subme=7 / psy=1 / psy_rd=1.00:0.00 / mixed_ref=1 / me_range=16 / chroma_me=1 / trellis=1 / 8x8dct=1 / cqm=0 / deadzone=21,11 / fast_pskip=0 / chroma_qp_offset=-2 / threads=24 / lookahead_threads=4 / sliced_threads=0 / nr=0 / decimate=1 / interlaced=0 / bluray_compat=0 / constrained_intra=0 / bframes=3 / b_pyramid=2 / b_adapt=1 / b_bias=0 / direct=1 / weightb=1 / open_gop=0 / weightp=2 / keyint=250 / keyint_min=23 / scenecut=40 / intra_refresh=0 / rc_lookahead=40 / rc=2pass / mbtree=1 / bitrate=6415 / ratetol=1.0 / qcomp=0.60 / qpmin=0 / qpmax=69 / qpstep=4 / cplxblur=20.0 / qblur=0.5 / ip_ratio=1.40 / aq=1:1.00
Language                    : English
Default                     : Yes
Forced                      : No


Audio [Tienes que estar registrado y conectado para ver este vínculo]
ID                          : 2
Format                      : AC-3
Format/Info                 : Audio Coding 3
Format settings, Endianness : Big
Codec ID                    : A_AC3
Duration                    : 1 h 28 min
Bit rate mode               : Constant
Bit rate                    : 448 kb/s
Channel(s)                  : 6 channels
Channel positions           : Front: L C R, Side: L R, LFE
Sampling rate               : 48.0 kHz
Frame rate                  : 31.250 FPS (1536 SPF)
Bit depth                   : 16 bits
Compression mode            : Lossy
Stream size                 : 284 MiB (6%)
Title                       : AC-3
Language                    : Spanish
Service kind                : Complete Main
Default                     : Yes
Forced                      : No


Audio [Tienes que estar registrado y conectado para ver este vínculo]
ID                          : 3
Format                      : AC-3
Format/Info                 : Audio Coding 3
Format settings, Endianness : Big
Codec ID                    : A_AC3
Duration                    : 1 h 28 min
Bit rate mode               : Constant
Bit rate                    : 448 kb/s
Channel(s)                  : 6 channels
Channel positions           : Front: L C R, Side: L R, LFE
Sampling rate               : 48.0 kHz
Frame rate                  : 31.250 FPS (1536 SPF)
Bit depth                   : 16 bits
Compression mode            : Lossy
Stream size                 : 284 MiB (6%)
Title                       : AC-3
Language                    : English
Service kind                : Complete Main
Default                     : No
Forced                      : No


Text [Tienes que estar registrado y conectado para ver este vínculo]
ID                          : 4
Format                      : UTF-8
Codec ID                    : S_TEXT/UTF8
Codec ID/Info               : UTF-8 Plain Text
Duration                    : 1 h 6 min
Bit rate                    : 0 b/s
Count of elements           : 16
Stream size                 : 438 Bytes (0%)
Title                       : Forzados
Language                    : Spanish
Default                     : Yes
Forced                      : No


Text [Tienes que estar registrado y conectado para ver este vínculo]
ID                          : 5
Format                      : UTF-8
Codec ID                    : S_TEXT/UTF8
Codec ID/Info               : UTF-8 Plain Text
Duration                    : 1 h 15 min
Bit rate                    : 45 b/s
Count of elements           : 882
Stream size                 : 25.2 KiB (0%)
Title                       : Completos
Language                    : Spanish
Default                     : No
Forced                      : No


Text [Tienes que estar registrado y conectado para ver este vínculo]
ID                          : 6
Format                      : UTF-8
Codec ID                    : S_TEXT/UTF8
Codec ID/Info               : UTF-8 Plain Text
Duration                    : 1 h 25 min
Bit rate                    : 105 b/s
Count of elements           : 1543
Stream size                 : 66.2 KiB (0%)
Title                       : Completos
Language                    : English
Default                     : No
Forced                      : No


Menu
00:00:00.000                : en:00:00:00.000
00:06:07.701                : en:00:06:07.701
00:09:12.635                : en:00:09:12.635
00:16:28.112                : en:00:16:28.112
00:20:00.699                : en:00:20:00.699
00:25:48.255                : en:00:25:48.255
00:30:27.659                : en:00:30:27.659
00:34:12.092                : en:00:34:12.092
00:40:13.995                : en:00:40:13.995
00:45:28.142                : en:00:45:28.142
00:50:12.301                : en:00:50:12.301
00:57:18.643                : en:00:57:18.643
01:00:41.137                : en:01:00:41.137
01:04:59.187                : en:01:04:59.187
01:11:13.060                : en:01:11:13.060
01:16:59.823                : en:01:16:59.823


Enlaces Descarga
Tusfiles - Uptobox - Userscloud - 1fichier - Depositfiles - Wayupload
En algunos servidores (Tusfiles, Filebebo, Userscloud...) es necesario estar registrado para descargar a mayor velocidad.


Enlaces Online
OK.ru - Rapidvideo - Openload - Vidoza - Vidlox - Userscloud
Para ver online en Userscloud necesitas estar registrado en su página y usar el navegador Google Chrome


Reproductor
(Rapidvideo)



NOTA: Por favor, si los enlaces están caidos avisa en un comentario para poder resubirlos. Gracias

______________________________________________________
Saludos  Smile
Volver arriba
Permisos de este foro:
No puedes responder a temas en este foro.