Comparte
Ir abajo
avatar
Admin
Administrador
Administrador
Sexo : Masculino
Mensajes : 1344
Puntos : 4374
Reputación : 1056
Fecha de inscripción : 02/04/2012
Localización : España

Drama Cartas de Berlín (2016) [Ver Online] [Descargar] [HD 1080p] [Español-Inglés] [Drama]

el Jue 28 Jun 2018 - 1:14
Reputación del mensaje :100% (1 voto)

Ficha Técnica
SINOPSIS: Berlín, 1940. Cuando a Otto y Anna Quangel, un matrimonio de clase obrera, les comunican que su único hijo ha muerto en el campo de batalla, ambos emprenden una campaña nada menos que en contra de Hitler, el nazismo y la guerra, pero pronto comenzarán a ser perseguidos por la Gestapo.
TÍTULO ORIGINAL: Alone in Berlin
AÑO: [Tienes que estar registrado y conectado para ver este vínculo]
DURACIÓN: 103 min.
PAÍS:  Reino Unido
DIRECTOR: Vincent Pérez
REPARTO: Daniel Brühl, Emma Thompson, Brendan Gleeson, Katharina Schüttler, Mikael Persbrandt, Hildegard Schroedter, Uwe Preuss, Godehard Giese, Lars Rudolph, Rafael Gareisen, Katrin Pollitt, Rainer Reiners, Marko Dyrlich, Chris Theisinger, Joshua Grothe, Emil von Schönfels, Sammy Scheuritzel
GÉNERO: [Tienes que estar registrado y conectado para ver este vínculo] | [Tienes que estar registrado y conectado para ver este vínculo] [Tienes que estar registrado y conectado para ver este vínculo] [Tienes que estar registrado y conectado para ver este vínculo] [Tienes que estar registrado y conectado para ver este vínculo]

Capturas



Trailer

Info
CALIDAD DE VIDEO: BDRip m1080p MPEG4 Video (H264) 1920x804
CALIDAD DE AUDIO 1: Castellano - AC-3 - 5.1 - 448 Kbps
CALIDAD DE AUDIO 2: Inglés - AC-3 - 5.1 - 448 Kbps
SUBTITULOS: Incluye completos en Español e Inglés y forzados en Español
TAMAÑO: 4.75 GiB
Mediainfo:
Format : Matroska
Format version : Version 4 / Version 2
File size : 4.75 GiB
Duration : 1 h 43 min
Overall bit rate : 6 581 kb/s
Movie name : Cartas de Berlín - [Tienes que estar registrado y conectado para ver este vínculo]
Encoded date : UTC 2018-06-26 21:50:14
Writing application : mkvmerge v23.0.0 ('The Bride Said No') 64-bit
Writing library : libebml v1.3.6 + libmatroska v1.4.9


Video
ID : 1
Format : AVC
Format/Info : Advanced Video Codec
Format profile : High@L4.1
Format settings : CABAC / 5 Ref Frames
Format settings, CABAC : Yes
Format settings, RefFrames : 5 frames
Codec ID : V_MPEG4/ISO/AVC
Duration : 1 h 43 min
Bit rate : 5 685 kb/s
Width : 1 920 pixels
Height : 804 pixels
Display aspect ratio : 2.40:1
Frame rate mode : Constant
Frame rate : 24.000 FPS
Color space : YUV
Chroma subsampling : 4:2:0
Bit depth : 8 bits
Scan type : Progressive
Bits/(Pixel*Frame) : 0.153
Stream size : 4.10 GiB (86%)
Title : AVC
Writing library : x264 core 155 r2901 7d0ff22
Encoding settings : cabac=1 / ref=5 / deblock=1:-3:-3 / analyse=0x3:0x113 / me=umh / subme=11 / psy=1 / psy_rd=1.07:0.00 / mixed_ref=1 / me_range=48 / chroma_me=1 / trellis=2 / 8x8dct=1 / cqm=0 / deadzone=21,11 / fast_pskip=0 / chroma_qp_offset=-2 / threads=25 / lookahead_threads=6 / sliced_threads=0 / nr=0 / decimate=1 / interlaced=0 / bluray_compat=0 / constrained_intra=0 / bframes=10 / b_pyramid=2 / b_adapt=2 / b_bias=0 / direct=1 / weightb=1 / open_gop=0 / weightp=2 / keyint=240 / keyint_min=24 / scenecut=40 / intra_refresh=0 / rc_lookahead=80 / rc=crf / mbtree=1 / crf=20.5 / qcomp=0.65 / qpmin=0 / qpmax=69 / qpstep=4 / vbv_maxrate=62500 / vbv_bufsize=78125 / crf_max=0.0 / nal_hrd=none / filler=0 / ip_ratio=1.40 / aq=2:1.00
Default : Yes
Forced : Yes
Color range : Limited
Color primaries : BT.709
Transfer characteristics : BT.709
Matrix coefficients : BT.709


Audio [Tienes que estar registrado y conectado para ver este vínculo]
ID : 2
Format : AC-3
Format/Info : Audio Coding 3
Format settings, Endianness : Big
Codec ID : A_AC3
Duration : 1 h 43 min
Bit rate mode : Constant
Bit rate : 448 kb/s
Channel(s) : 6 channels
Channel positions : Front: L C R, Side: L R, LFE
Sampling rate : 48.0 kHz
Frame rate : 31.250 FPS (1536 SPF)
Bit depth : 16 bits
Compression mode : Lossy
Stream size : 330 MiB (7%)
Title : AC-3
Language : Spanish
Service kind : Complete Main
Default : Yes
Forced : Yes


Audio [Tienes que estar registrado y conectado para ver este vínculo]
ID : 3
Format : AC-3
Format/Info : Audio Coding 3
Format settings, Endianness : Big
Codec ID : A_AC3
Duration : 1 h 43 min
Bit rate mode : Constant
Bit rate : 448 kb/s
Channel(s) : 6 channels
Channel positions : Front: L C R, Side: L R, LFE
Sampling rate : 48.0 kHz
Frame rate : 31.250 FPS (1536 SPF)
Bit depth : 16 bits
Compression mode : Lossy
Stream size : 331 MiB (7%)
Title : AC-3
Language : English
Service kind : Complete Main
Default : No
Forced : No


Text [Tienes que estar registrado y conectado para ver este vínculo]
ID : 4
Format : UTF-8
Codec ID : S_TEXT/UTF8
Codec ID/Info : UTF-8 Plain Text
Duration : 1 h 29 min
Bit rate : 1 b/s
Count of elements : 19
Stream size : 673 Bytes (0%)
Title : Forzados
Language : Spanish
Default : Yes
Forced : Yes


Text [Tienes que estar registrado y conectado para ver este vínculo]
ID : 5
Format : UTF-8
Codec ID : S_TEXT/UTF8
Codec ID/Info : UTF-8 Plain Text
Duration : 1 h 34 min
Bit rate : 35 b/s
Count of elements : 883
Stream size : 24.6 KiB (0%)
Title : Completos
Language : Spanish
Default : No
Forced : No


Text [Tienes que estar registrado y conectado para ver este vínculo]
ID : 6
Format : UTF-8
Codec ID : S_TEXT/UTF8
Codec ID/Info : UTF-8 Plain Text
Duration : 1 h 33 min
Bit rate : 34 b/s
Count of elements : 641
Stream size : 23.8 KiB (0%)
Title : Completos
Language : English
Default : No
Forced : No


Menu [Tienes que estar registrado y conectado para ver este vínculo]
00:00:00.000 : en:00:00:00.000
00:07:24.917 : en:00:07:24.917
00:14:25.333 : en:00:14:25.333
00:20:23.125 : en:00:20:23.125
00:25:54.167 : en:00:25:54.167
00:34:36.417 : en:00:34:36.417
00:43:14.125 : en:00:43:14.125
00:50:51.958 : en:00:50:51.958
00:58:42.500 : en:00:58:42.500
01:04:15.333 : en:01:04:15.333
01:11:31.292 : en:01:11:31.292
01:15:56.375 : en:01:15:56.375
01:20:51.458 : en:01:20:51.458
01:26:34.583 : en:01:26:34.583
01:31:54.542 : en:01:31:54.542
01:35:49.000 : en:01:35:49.000


Menu [Tienes que estar registrado y conectado para ver este vínculo]
00:00:00.000 : en:00:00:00.000
00:07:24.917 : en:00:07:24.917
00:14:25.333 : en:00:14:25.333
00:20:23.125 : en:00:20:23.125
00:25:54.167 : en:00:25:54.167
00:34:36.417 : en:00:34:36.417
00:43:14.125 : en:00:43:14.125
00:50:51.958 : en:00:50:51.958
00:58:42.500 : en:00:58:42.500
01:04:15.333 : en:01:04:15.333
01:11:31.292 : en:01:11:31.292
01:15:56.375 : en:01:15:56.375
01:20:51.458 : en:01:20:51.458
01:26:34.583 : en:01:26:34.583
01:31:54.542 : en:01:31:54.542
01:35:49.000 : en:01:35:49.000


Enlaces Descarga
Tusfiles - Uptobox - Userscloud - 1fichier - Depositfiles - Wayupload
En algunos servidores (Tusfiles, Filebebo, Userscloud...) es necesario estar registrado para descargar a mayor velocidad.


Enlaces Online
Rapidvideo - Openload - Vidoza - Streamango - Vidlox - Userscloud
Para ver online en Userscloud necesitas estar registrado en su página y usar el navegador Google Chrome


Reproductor
(Rapidvideo)



NOTA: Por favor, si los enlaces están caidos avisa en un comentario para poder resubirlos. Gracias

______________________________________________________
Saludos  Smile
Volver arriba
Permisos de este foro:
No puedes responder a temas en este foro.