Comparte
Ir abajo
avatar
Admin
Administrador
Administrador
Sexo : Masculino
Mensajes : 1897
Puntos : 5823
Reputación : 1224
Fecha de inscripción : 02/04/2012
Localización : España

Drama Loving Pablo (2017) [Ver Online] [Descargar] [HD 1080p] [Español-Inglés] [Drama]

el Mar 10 Jul 2018 - 15:51
Reputación del mensaje :100% (1 voto)

Ficha Técnica
SINOPSIS: Drama sobre el narcotraficante colombiano Pablo Escobar, basado en el libro 'Amando a Pablo, odiando a Escobar', escrito por la periodista colombiana Virginia Vallejo, donde cuenta la relación amorosa que mantuvo con el narcotraficante en la década de los 80.
TÍTULO ORIGINAL: Loving Pablo
AÑO: [Tienes que estar registrado y conectado para ver este vínculo]
DURACIÓN: 123 min.
PAÍS:  España
DIRECTOR: Fernando Léon de Aranoa
REPARTO: Javier Bardem, Penélope Cruz, Peter Sarsgaard, Julieth Restrepo, Óscar Jaenada, David Ojalvo, David Valencia, Lillian Blankenship, Giselle Da Silva, Nathan Cooper, Pedro Calvo, Manuel José Chavez, Joavany Alvarez, Mark Basnight, Diego Landaeta, Mihail Stoyanov
GÉNERO: [Tienes que estar registrado y conectado para ver este vínculo] | [Tienes que estar registrado y conectado para ver este vínculo] [Tienes que estar registrado y conectado para ver este vínculo] [Tienes que estar registrado y conectado para ver este vínculo]

Capturas



Trailer

Info
CALIDAD DE VIDEO: BDRip m1080p MPEG4 Video (H264) 1920x806
CALIDAD DE AUDIO 1: Castellano AC3 5.1 448 Kbps
CALIDAD DE AUDIO 2: Inglés AC3 5.1 384 Kbps
SUBTITULOS: Incluye completos en español e inglés y forzados en español.
TAMAÑO: 4.60 GiB
Mediainfo:
Format : Matroska
Format version : Version 4 / Version 2
File size : 4.60 GiB
Duration : 2 h 3 min
Overall bit rate : 5 352 kb/s
Movie name : Loving Pablo - [Tienes que estar registrado y conectado para ver este vínculo]
Encoded date : UTC 2018-07-09 19:37:41
Writing application : mkvmerge v23.0.0 ('The Bride Said No') 64-bit
Writing library : libebml v1.3.6 + libmatroska v1.4.9
Attachments : My Movie flipax.mkv


Video
ID : 1
Format : AVC
Format/Info : Advanced Video Codec
Format profile : High@L4
Format settings : CABAC / 5 Ref Frames
Format settings, CABAC : Yes
Format settings, RefFrames : 5 frames
Codec ID : V_MPEG4/ISO/AVC
Duration : 2 h 3 min
Bit rate : 4 516 kb/s
Width : 1 920 pixels
Height : 806 pixels
Display aspect ratio : 2.40:1
Frame rate mode : Constant
Frame rate : 23.976 (24000/1001) FPS
Color space : YUV
Chroma subsampling : 4:2:0
Bit depth : 8 bits
Scan type : Progressive
Bits/(Pixel*Frame) : 0.122
Stream size : 3.88 GiB (84%)
Title : AVC
Language : English
Default : Yes
Forced : No
Color range : Limited
Color primaries : BT.709
Transfer characteristics : BT.709
Matrix coefficients : BT.709


Audio [Tienes que estar registrado y conectado para ver este vínculo]
ID : 2
Format : AC-3
Format/Info : Audio Coding 3
Format settings, Endianness : Big
Codec ID : A_AC3
Duration : 2 h 2 min
Bit rate mode : Constant
Bit rate : 448 kb/s
Channel(s) : 6 channels
Channel positions : Front: L C R, Side: L R, LFE
Sampling rate : 48.0 kHz
Frame rate : 31.250 FPS (1536 SPF)
Bit depth : 16 bits
Compression mode : Lossy
Delay relative to video : -42 ms
Stream size : 393 MiB (8%)
Title : AC-3
Language : Spanish
Service kind : Complete Main
Default : Yes
Forced : No


Audio [Tienes que estar registrado y conectado para ver este vínculo]
ID : 3
Format : AC-3
Format/Info : Audio Coding 3
Format settings, Endianness : Big
Codec ID : A_AC3
Duration : 2 h 3 min
Bit rate mode : Constant
Bit rate : 384 kb/s
Channel(s) : 6 channels
Channel positions : Front: L C R, Side: L R, LFE
Sampling rate : 48.0 kHz
Frame rate : 31.250 FPS (1536 SPF)
Bit depth : 16 bits
Compression mode : Lossy
Delay relative to video : -42 ms
Stream size : 338 MiB (7%)
Title : AC-3
Language : English
Service kind : Complete Main
Default : No
Forced : No


Text [Tienes que estar registrado y conectado para ver este vínculo]
ID : 4
Format : UTF-8
Codec ID : S_TEXT/UTF8
Codec ID/Info : UTF-8 Plain Text
Duration : 1 h 57 min
Bit rate : 1 b/s
Count of elements : 36
Stream size : 1.24 KiB (0%)
Title : FORZADOS
Language : Spanish
Default : Yes
Forced : No


Text [Tienes que estar registrado y conectado para ver este vínculo]
ID : 5
Format : UTF-8
Codec ID : S_TEXT/UTF8
Codec ID/Info : UTF-8 Plain Text
Duration : 1 h 57 min
Bit rate : 57 b/s
Count of elements : 1417
Stream size : 49.1 KiB (0%)
Title : COMPLETOS
Language : Spanish
Default : No
Forced : No


Text [Tienes que estar registrado y conectado para ver este vínculo]
ID : 6
Format : UTF-8
Codec ID : S_TEXT/UTF8
Codec ID/Info : UTF-8 Plain Text
Duration : 1 h 56 min
Bit rate : 67 b/s
Count of elements : 2750
Stream size : 57.4 KiB (0%)
Title : COMPLETOS
Language : English
Default : No
Forced : No


Menu
00:00:00.000 : en:1
00:15:22.922 : en:2
00:30:45.844 : en:3
00:46:08.766 : en:4
01:01:31.688 : en:5
01:16:54.610 : en:6
01:32:17.532 : en:7
01:47:40.454 : en:8


Enlaces Descarga
Tusfiles - Uptobox - Userscloud - 1fichier - Depositfiles - Rapidgator - Wayupload
En algunos servidores (Tusfiles, Filebebo, Sendit, Userscloud...) es necesario estar registrado para descargar archivos grandes y a mayor velocidad.


Enlaces Online
Rapidvideo - Openload - Vidoza - Streamango - Vidlox - Userscloud
Para ver online en Sendit, Userscloud y Filebebo necesitas estar registrado en su página y usar el navegador Google Chrome


Reproductor



NOTA: Por favor, si los enlaces están caidos avisa en un comentario para poder resubirlos. Gracias

______________________________________________________
[Tienes que estar registrado y conectado para ver este vínculo]
Saludos  Smile
Volver arriba
Permisos de este foro:
No puedes responder a temas en este foro.