Comparte
Ir abajo
avatar
Admin
Administrador
Administrador
Sexo : Masculino
Mensajes : 1344
Puntos : 4374
Reputación : 1056
Fecha de inscripción : 02/04/2012
Localización : España

Comedia La tribu (2018) [Ver Online] [Descargar] [HD 1080p] [Castellano] [Comedia]

el Jue 12 Jul 2018 - 23:27
Reputación del mensaje :100% (1 voto)

Ficha Técnica
SINOPSIS: Virginia (Carmen Machi), limpiadora de profesión y “streetdancer” vocacional, recupera al hijo que dio en adopción: Fidel (Paco León), un ejecutivo que lo ha perdido todo, incluida la memoria. Junto a “Las Mamis”, el extravagante grupo de baile que forman las compañeras de Virginia, madre e hijo descubrirán que a pesar de venir de mundos muy diferentes, ambos llevan el ritmo en la sangre.
TÍTULO ORIGINAL: La tribu
AÑO: [Tienes que estar registrado y conectado para ver este vínculo]
DURACIÓN: 90 min.
PAÍS:  España
DIRECTOR: Fernando Colomo
REPARTO: Paco León, Carmen Machi, Luis Bermejo, Maribel del Pino, Arlette Torres, María José Sarrate, Maite Sandoval, Artur Busquets, Julián López, Bárbara Santa-Cruz, Marisol Aznar, Jorge Asín, Manuel Huedo, Rebeca Sala, Manel Fuentes, Horacio Colomé, Alfonso Lara, Julián Teurlais, Javier Perdiguero
GÉNERO: [Tienes que estar registrado y conectado para ver este vínculo] | [Tienes que estar registrado y conectado para ver este vínculo] [Tienes que estar registrado y conectado para ver este vínculo]

Capturas



Trailer

Info
CALIDAD DE VIDEO: BDRip m1080p MPEG4 Video (H264) 1920x800
CALIDAD DE AUDIO 1: Castellano DTS 5.1 1509 Kbps
CALIDAD DE AUDIO 2: Castellano AC3 5.1 640 Kbps
SUBTITULOS: Incluye completos en español e inglés
TAMAÑO: 4.86 GiB
Mediainfo:
Format : Matroska
Format version : Version 4 / Version 2
File size : 4.86 GiB
Duration : 1 h 30 min
Overall bit rate : 7 720 kb/s
Movie name : La Tribu - [Tienes que estar registrado y conectado para ver este vínculo]
Encoded date : UTC 2018-07-11 22:10:57
Writing application : mkvmerge v23.0.0 ('The Bride Said No') 64-bit
Writing library : libebml v1.3.6 + libmatroska v1.4.9


Video
ID : 1
Format : AVC
Format/Info : Advanced Video Codec
Format profile : High@L4.1
Format settings : CABAC / 5 Ref Frames
Format settings, CABAC : Yes
Format settings, RefFrames : 5 frames
Codec ID : V_MPEG4/ISO/AVC
Duration : 1 h 30 min
Bit rate : 5 536 kb/s
Width : 1 920 pixels
Height : 800 pixels
Display aspect ratio : 2.40:1
Frame rate mode : Constant
Frame rate : 24.000 FPS
Color space : YUV
Chroma subsampling : 4:2:0
Bit depth : 8 bits
Scan type : Progressive
Bits/(Pixel*Frame) : 0.150
Stream size : 3.48 GiB (72%)
Title : AVC
Writing library : x264 core 152 r2851 ba24899
Encoding settings : cabac=1 / ref=5 / deblock=1:-3:-3 / analyse=0x3:0x113 / me=umh / subme=11 / psy=1 / psy_rd=1.10:0.05 / mixed_ref=1 / me_range=48 / chroma_me=1 / trellis=2 / 8x8dct=1 / cqm=0 / deadzone=21,11 / fast_pskip=0 / chroma_qp_offset=-3 / threads=25 / lookahead_threads=2 / sliced_threads=0 / nr=0 / decimate=1 / interlaced=0 / bluray_compat=0 / constrained_intra=0 / bframes=5 / b_pyramid=2 / b_adapt=2 / b_bias=0 / direct=1 / weightb=1 / open_gop=0 / weightp=2 / keyint=240 / keyint_min=24 / scenecut=40 / intra_refresh=0 / rc_lookahead=45 / rc=crf / mbtree=1 / crf=18.1 / qcomp=0.70 / qpmin=0 / qpmax=69 / qpstep=4 / vbv_maxrate=62500 / vbv_bufsize=78125 / crf_max=0.0 / nal_hrd=none / filler=0 / ip_ratio=1.40 / aq=1:1.10
Language : Spanish
Default : Yes
Forced : No


Audio [Tienes que estar registrado y conectado para ver este vínculo]
ID : 2
Format : DTS
Format/Info : Digital Theater Systems
Mode : 16
Format settings, Endianness : Big
Codec ID : A_DTS
Duration : 1 h 30 min
Bit rate mode : Constant
Bit rate : 1 509 kb/s
Channel(s) : 6 channels
Channel positions : Front: L C R, Side: L R, LFE
Sampling rate : 48.0 kHz
Frame rate : 93.750 FPS (512 SPF)
Bit depth : 16 bits
Compression mode : Lossy
Stream size : 972 MiB (20%)
Title : DTS
Language : Spanish
Default : Yes
Forced : No


Audio [Tienes que estar registrado y conectado para ver este vínculo]
ID : 3
Format : AC-3
Format/Info : Audio Coding 3
Format settings, Endianness : Big
Codec ID : A_AC3
Duration : 1 h 30 min
Bit rate mode : Constant
Bit rate : 640 kb/s
Channel(s) : 6 channels
Channel positions : Front: L C R, Side: L R, LFE
Sampling rate : 48.0 kHz
Frame rate : 31.250 FPS (1536 SPF)
Bit depth : 16 bits
Compression mode : Lossy
Stream size : 412 MiB (8%)
Title : AC-3
Language : Spanish
Service kind : Complete Main
Default : No
Forced : No


Text [Tienes que estar registrado y conectado para ver este vínculo]
ID : 4
Format : UTF-8
Codec ID : S_TEXT/UTF8
Codec ID/Info : UTF-8 Plain Text
Duration : 1 h 27 min
Bit rate : 88 b/s
Count of elements : 1678
Stream size : 56.8 KiB (0%)
Title : COMPLETOS
Language : Spanish
Default : No
Forced : No


Text [Tienes que estar registrado y conectado para ver este vínculo]
ID : 5
Format : PGS
Muxing mode : zlib
Codec ID : S_HDMV/PGS
Codec ID/Info : Picture based subtitle format used on BDs/HD-DVDs
Duration : 1 h 27 min
Bit rate : 70.0 kb/s
Count of elements : 3364
Stream size : 43.7 MiB (1%)
Title : COMPLETOS PGS
Language : Spanish
Default : No
Forced : No


Text [Tienes que estar registrado y conectado para ver este vínculo]
ID : 6
Format : UTF-8
Codec ID : S_TEXT/UTF8
Codec ID/Info : UTF-8 Plain Text
Duration : 1 h 27 min
Bit rate : 67 b/s
Count of elements : 1580
Stream size : 42.9 KiB (0%)
Title : COMPLETOS
Language : English
Default : No
Forced : No


Text [Tienes que estar registrado y conectado para ver este vínculo]
ID : 7
Format : PGS
Muxing mode : zlib
Codec ID : S_HDMV/PGS
Codec ID/Info : Picture based subtitle format used on BDs/HD-DVDs
Duration : 1 h 27 min
Bit rate : 55.1 kb/s
Count of elements : 3192
Stream size : 34.4 MiB (1%)
Title : COMPLETOS PGS
Language : English
Default : No
Forced : No


Menu
00:00:00.000 : en:00:00:00.000
00:07:38.917 : en:00:07:38.917
00:15:19.875 : en:00:15:19.875
00:22:26.625 : en:00:22:26.625
00:29:21.333 : en:00:29:21.333
00:36:55.375 : en:00:36:55.375
00:44:14.625 : en:00:44:14.625
00:52:57.750 : en:00:52:57.750
01:00:49.000 : en:01:00:49.000
01:08:59.917 : en:01:08:59.917
01:16:11.125 : en:01:16:11.125
01:25:20.917 : en:01:25:20.917
01:27:34.458 : en:01:27:34.458


Enlaces Descarga
Tusfiles - Uptobox - Userscloud - 1fichier - Depositfiles - Wayupload
En algunos servidores (Tusfiles, Filebebo, Sendit, Userscloud...) es necesario estar registrado para descargar archivos grandes y a mayor velocidad.


Enlaces Online
Rapidvideo - Openload - Vidoza - Streamango - Vidlox - Userscloud
Para ver online en Sendit, Userscloud y Filebebo necesitas estar registrado en su página y usar el navegador Google Chrome


Reproductor



NOTA: Por favor, si los enlaces están caidos avisa en un comentario para poder resubirlos. Gracias

______________________________________________________
Saludos  Smile
Volver arriba
Permisos de este foro:
No puedes responder a temas en este foro.