Comparte
Ir abajo
avatar
Admin
Administrador
Administrador
Sexo : Masculino
Mensajes : 1060
Puntos : 3659
Reputación : 894
Fecha de inscripción : 02/04/2012
Localización : España

C.Ficción Ready Player One (2018) [Ver Online] [Descargar] [HD 1080p] [Español-Inglés] [C.Ficción]

el Vie 13 Jul 2018 - 17:16

Ficha Técnica
SINOPSIS: Año 2045. Wade Watts es un adolescente al que le gusta evadirse del cada vez más sombrío mundo real a través de una popular utopía virtual a escala global llamada "Oasis". Un día, su excéntrico y multimillonario creador muere, pero antes ofrece su fortuna y el destino de su empresa al ganador de una elaborada búsqueda del tesoro a través de los rincones más inhóspitos de su creación. Será el punto de partida para que Wade se enfrente a jugadores, poderosos enemigos corporativos y otros competidores despiadados, dispuestos a hacer lo que sea, tanto dentro de "Oasis" como del mundo real, para hacerse con el premio.
TÍTULO ORIGINAL: Ready Player One
AÑO: [Tienes que estar registrado y conectado para ver este vínculo]
DURACIÓN: 140 min.
PAÍS:  Estados Unidos
DIRECTOR: Steven Spielberg
REPARTO: Tye Sheridan,  Olivia Cooke,  Ben Mendelsohn,  Mark Rylance,  Simon Pegg, T.J. Miller,  Hannah John-Kamen,  Win Morisaki,  Philip Zhao,  Julia Nickson, Kae Alexander,  Lena Waithe,  Ralph Ineson,  David Barrera,  Michael Wildman, Lynne Wilmot,  Carter Hastings,  Daniel Eghan
GÉNERO: [Tienes que estar registrado y conectado para ver este vínculo] [Tienes que estar registrado y conectado para ver este vínculo] [Tienes que estar registrado y conectado para ver este vínculo] | [Tienes que estar registrado y conectado para ver este vínculo] [Tienes que estar registrado y conectado para ver este vínculo] / [Tienes que estar registrado y conectado para ver este vínculo] [Tienes que estar registrado y conectado para ver este vínculo]

Capturas



Trailer

Info
CALIDAD DE VIDEO: BDRip m1080p MPEG4 Video (H264) 1920x808
CALIDAD DE AUDIO 1: Castellano AC3 5.1 448 Kbps
CALIDAD DE AUDIO 2: Inglés AC3 5.1 640 Kbps
SUBTITULOS: Incluye completos en español e inglés y forzados en español
TAMAÑO: 4.83 GiB
Mediainfo:
Format                      : Matroska
Format version              : Version 4 / Version 2
File size                   : 4.83 GiB
Duration                    : 2 h 19 min
Overall bit rate            : 4 942 kb/s
Movie name                  : Ready Player One - [Tienes que estar registrado y conectado para ver este vínculo]
Encoded date                : UTC 2018-07-12 15:43:58
Writing application         : mkvmerge v23.0.0 ('The Bride Said No') 64-bit
Writing library             : libebml v1.3.6 + libmatroska v1.4.9


Video
ID                          : 1
Format                      : AVC
Format/Info                 : Advanced Video Codec
Format profile              : High@L4.1
Format settings             : CABAC / 4 Ref Frames
Format settings, CABAC      : Yes
Format settings, RefFrames  : 4 frames
Codec ID                    : V_MPEG4/ISO/AVC
Duration                    : 2 h 19 min
Bit rate                    : 3 842 kb/s
Width                       : 1 920 pixels
Height                      : 808 pixels
Display aspect ratio        : 2.40:1
Frame rate mode             : Constant
Frame rate                  : 23.976 (24000/1001) FPS
Color space                 : YUV
Chroma subsampling          : 4:2:0
Bit depth                   : 8 bits
Scan type                   : Progressive
Bits/(Pixel*Frame)          : 0.103
Stream size                 : 3.75 GiB (78%)
Title                       : AVC
Language                    : Spanish
Default                     : Yes
Forced                      : No
Color range                 : Limited
Color primaries             : BT.709
Transfer characteristics    : BT.709
Matrix coefficients         : BT.709


Audio [Tienes que estar registrado y conectado para ver este vínculo]
ID                          : 2
Format                      : AC-3
Format/Info                 : Audio Coding 3
Format settings, Endianness : Big
Codec ID                    : A_AC3
Duration                    : 2 h 19 min
Bit rate mode               : Constant
Bit rate                    : 448 kb/s
Channel(s)                  : 6 channels
Channel positions           : Front: L C R, Side: L R, LFE
Sampling rate               : 48.0 kHz
Frame rate                  : 31.250 FPS (1536 SPF)
Bit depth                   : 16 bits
Compression mode            : Lossy
Delay relative to video     : 5 ms
Stream size                 : 448 MiB (9%)
Title                       : AC-3
Language                    : Spanish
Service kind                : Complete Main
Default                     : Yes
Forced                      : No


Audio [Tienes que estar registrado y conectado para ver este vínculo]
ID                          : 3
Format                      : AC-3
Format/Info                 : Audio Coding 3
Format settings, Endianness : Big
Codec ID                    : A_AC3
Duration                    : 2 h 19 min
Bit rate mode               : Constant
Bit rate                    : 640 kb/s
Channel(s)                  : 6 channels
Channel positions           : Front: L C R, Side: L R, LFE
Sampling rate               : 48.0 kHz
Frame rate                  : 31.250 FPS (1536 SPF)
Bit depth                   : 16 bits
Compression mode            : Lossy
Delay relative to video     : 5 ms
Stream size                 : 641 MiB (13%)
Title                       : AC-3
Language                    : English
Service kind                : Complete Main
Default                     : No
Forced                      : No


Text [Tienes que estar registrado y conectado para ver este vínculo]
ID                          : 4
Format                      : UTF-8
Codec ID                    : S_TEXT/UTF8
Codec ID/Info               : UTF-8 Plain Text
Duration                    : 1 h 39 min
Bit rate                    : 0 b/s
Count of elements           : 19
Stream size                 : 631 Bytes (0%)
Title                       : FORZADOS
Language                    : Spanish
Default                     : Yes
Forced                      : No


Text [Tienes que estar registrado y conectado para ver este vínculo]
ID                          : 5
Format                      : UTF-8
Codec ID                    : S_TEXT/UTF8
Codec ID/Info               : UTF-8 Plain Text
Duration                    : 2 h 10 min
Bit rate                    : 53 b/s
Count of elements           : 1612
Stream size                 : 51.3 KiB (0%)
Title                       : COMPLETOS
Language                    : Spanish
Default                     : No
Forced                      : No


Text [Tienes que estar registrado y conectado para ver este vínculo]
ID                          : 6
Format                      : PGS
Muxing mode                 : zlib
Codec ID                    : S_HDMV/PGS
Codec ID/Info               : Picture based subtitle format used on BDs/HD-DVDs
Duration                    : 2 h 18 min
Bit rate                    : 31.8 kb/s
Count of elements           : 3210
Stream size                 : 31.6 MiB (1%)
Title                       : COMPLETOS PGS
Language                    : Spanish
Default                     : No
Forced                      : No


Text [Tienes que estar registrado y conectado para ver este vínculo]
ID                          : 7
Format                      : UTF-8
Codec ID                    : S_TEXT/UTF8
Codec ID/Info               : UTF-8 Plain Text
Duration                    : 2 h 7 min
Bit rate                    : 60 b/s
Count of elements           : 1635
Stream size                 : 56.2 KiB (0%)
Title                       : COMPLETOS
Language                    : English
Default                     : No
Forced                      : No


Menu
00:00:00.000                : en:00:00:00.000
00:10:05.934                : en:00:10:08.233
00:20:15.960                : en:00:20:18.259
00:30:35.328                : en:00:30:37.627
00:40:35.970                : en:00:40:38.269
00:50:06.665                : en:00:50:08.964
01:02:59.479                : en:01:03:01.778
01:11:52.970                : en:01:11:55.269
01:20:12.428                : en:01:20:14.727
01:30:56.029                : en:01:30:58.328
01:43:24.443                : en:01:43:26.742
01:52:59.851                : en:01:53:02.150
02:04:17.862                : en:02:04:20.161
02:09:14.950                : en:02:09:17.249


Enlaces Descarga
[Tienes que estar registrado y conectado para ver este vínculo] - [Tienes que estar registrado y conectado para ver este vínculo] - [Tienes que estar registrado y conectado para ver este vínculo] - [Tienes que estar registrado y conectado para ver este vínculo] - [Tienes que estar registrado y conectado para ver este vínculo] - [Tienes que estar registrado y conectado para ver este vínculo] - [Tienes que estar registrado y conectado para ver este vínculo]
En algunos servidores (Tusfiles, Filebebo, Sendit, Userscloud...) es necesario estar registrado para descargar archivos grandes y a mayor velocidad.


Enlaces Online
[Tienes que estar registrado y conectado para ver este vínculo] - [Tienes que estar registrado y conectado para ver este vínculo] - [Tienes que estar registrado y conectado para ver este vínculo] - [Tienes que estar registrado y conectado para ver este vínculo] - [Tienes que estar registrado y conectado para ver este vínculo] - [Tienes que estar registrado y conectado para ver este vínculo]
Para ver online en Sendit, Userscloud y Filebebo necesitas estar registrado en su página y usar el navegador [Tienes que estar registrado y conectado para ver este vínculo]


Reproductor



NOTA: Por favor, si los enlaces están caidos avisa en un comentario para poder resubirlos. Gracias

______________________________________________________
Saludos  Smile
Volver arriba
Permisos de este foro:
No puedes responder a temas en este foro.