Comparte
Ir abajo
avatar
Admin
Administrador
Administrador
Sexo : Masculino
Mensajes : 1514
Puntos : 4771
Reputación : 1103
Fecha de inscripción : 02/04/2012
Localización : España

Terror Noctem (2017) [Ver Online] [Descargar] [HD 1080p] [Castellano] [Intriga - Terror]

el Vie 20 Jul 2018 - 0:35
Reputación del mensaje :100% (1 voto)

Ficha Técnica
SINOPSIS: Adrián y Esteban llevan un año desaparecidos. La policía se encuentra en un punto muerto a pesar de haber encontrado sus pertenencias en Cozumel, una isla a veinte kilómetros de la Riviera Maya. Álex, un amigo en común de ambos, consigue hacerse con sus teléfonos móviles, los cuales utiliza para iniciar una investigación paralela. A pesar de que sus amigos siguen en paradero desconocido, Álex tiene otras inquietudes.
TÍTULO ORIGINAL: Noctem
AÑO: [Tienes que estar registrado y conectado para ver este vínculo]
DURACIÓN: 91 min.
PAÍS:  España
DIRECCIÓN: Marcos Cabotá
REPARTO: Adrián Lastra, Álex González, Esteban Piñero, Ernesto Alarcón, Raquel Arroyo, María Beltrán, Almudena Casado, Germán Conde, Neus Cortés, Marina Fernández, Irene Ferradas, Jaume Fuster, Mercé García Dopico, Mikel Hennet, Mariam Hernández, Diego Ingold, Sara López, Victoria Maldi, Alicia Melchor, Carles Molinet, Carla Nieto, Pere Pau, David Salinas
GÉNERO: [Tienes que estar registrado y conectado para ver este vínculo] [Tienes que estar registrado y conectado para ver este vínculo] | [Tienes que estar registrado y conectado para ver este vínculo] / [Tienes que estar registrado y conectado para ver este vínculo]

Capturas



Trailer

Info
CALIDAD DE VIDEO: m1080p MPEG4 Video (H264) 1920x800
CALIDAD DE AUDIO 1: Castellano AC-3 2 canales 448 Kbps
TAMAÑO: 2.29 GiB
Mediainfo:
Format                      : Matroska
Format version              : Version 4 / Version 2
File size                   : 2.29 GiB
Duration                    : 1 h 31 min
Overall bit rate            : 3 569 kb/s
Movie name                  : Noctem - [Tienes que estar registrado y conectado para ver este vínculo]
Encoded date                : UTC 2018-07-16 15:42:35
Writing application         : mkvmerge v23.0.0 ('The Bride Said No') 64-bit
Writing library             : libebml v1.3.6 + libmatroska v1.4.9


Video
ID                          : 1
Format                      : AVC
Format/Info                 : Advanced Video Codec
Format profile              : High@L4
Format settings             : CABAC / 4 Ref Frames
Format settings, CABAC      : Yes
Format settings, RefFrames  : 4 frames
Codec ID                    : V_MPEG4/ISO/AVC
Duration                    : 1 h 31 min
Bit rate                    : 3 123 kb/s
Width                       : 1 920 pixels
Height                      : 800 pixels
Display aspect ratio        : 2.40:1
Frame rate mode             : Constant
Frame rate                  : 25.000 FPS
Color space                 : YUV
Chroma subsampling          : 4:2:0
Bit depth                   : 8 bits
Scan type                   : Progressive
Bits/(Pixel*Frame)          : 0.081
Stream size                 : 2.00 GiB (87%)
Title                       : AVC
Language                    : Spanish
Default                     : Yes
Forced                      : Yes
Color range                 : Limited
Color primaries             : BT.709
Transfer characteristics    : BT.709
Matrix coefficients         : BT.709


Audio
ID                          : 2
Format                      : AC-3
Format/Info                 : Audio Coding 3
Format settings, Endianness : Big
Codec ID                    : A_AC3
Duration                    : 1 h 31 min
Bit rate mode               : Constant
Bit rate                    : 448 kb/s
Channel(s)                  : 2 channels
Channel positions           : Front: L R
Sampling rate               : 48.0 kHz
Frame rate                  : 31.250 FPS (1536 SPF)
Bit depth                   : 16 bits
Compression mode            : Lossy
Stream size                 : 292 MiB (12%)
Title                       : AC-3
Language                    : Spanish
Service kind                : Complete Main
Default                     : Yes
Forced                     : Yes


Enlaces Descarga
Tusfiles - Uptobox - Userscloud - 1fichier - Depositfiles - Filebebo - Hitfile - k-bagi - Rapidgator - Turbobit - Wayupload
En algunos servidores (Tusfiles, Filebebo, Sendit, Userscloud...) es necesario estar registrado para descargar archivos grandes y a mayor velocidad.


Enlaces Online
Rapidvideo - Openload - Vidoza - Streamango - Vidlox - Userscloud
Para ver online en Sendit, Userscloud y Filebebo necesitas estar registrado en su página y usar el navegador Google Chrome


Reproductor
(Rapidvideo)



NOTA: Por favor, si los enlaces están caidos avisa en un comentario para poder resubirlos. Gracias

______________________________________________________
Saludos  Smile
Volver arriba
Permisos de este foro:
No puedes responder a temas en este foro.