Comparte
Ir abajo
avatar
Admin
Administrador
Administrador
Sexo : Masculino
Mensajes : 1169
Puntos : 3971
Reputación : 976
Fecha de inscripción : 02/04/2012
Localización : España

Acción El leñador (Braven) 2018 [Ver Online] [Descargar] [HD 1080p] [Español-Inglés] [Acción]

el Sáb 21 Jul 2018 - 13:02
Reputación del mensaje :100% (1 voto)

Ficha Técnica
SINOPSIS: Joe Braven es un humilde leñador que vive en la frontera entre los Estados Unidos y Canadá. Cuando es asaltado por un grupo de traficantes de drogas en la recluida cabaña en el bosque donde vive, hará todo lo que está en su poder para intentar proteger a su familia.
TÍTULO ORIGINAL: Braven
AÑO: [Tienes que estar registrado y conectado para ver este vínculo]
DURACIÓN: 94 min.
PAÍS:  Canadá
DIRECCIÓN: Lin Oeding
REPARTO: Jason Momoa, Stephen Lang, Garret Dillahunt, Zahn McClarnon, Brendan Fletcher, Jill Wagner, Sala Baker, Fraser Aitcheson, Teach Grant, James Harvey Ward, Sasha Rossof, Tye Alexander, Steve O'Connell
GÉNERO: [Tienes que estar registrado y conectado para ver este vínculo]

Capturas



Trailer

Info
CALIDAD DE VIDEO: m1080p MPEG4 Video (H264) 1920x816
CALIDAD DE AUDIO 1: Castellano AC-3 2 canales 448 Kbps
CALIDAD DE AUDIO 2: Inglés AC-3 5.1 448 Kbps
SUBTITULOS: Incluye completos en español e inglés
TAMAÑO: 3.85 GiB
Mediainfo:
Format                      : Matroska
Format version              : Version 4 / Version 2
File size                   : 3.85 GiB
Duration                    : 1 h 33 min
Overall bit rate            : 5 865 kb/s
Movie name                  : El Leñador - [Tienes que estar registrado y conectado para ver este vínculo]
Encoded date                : UTC 2018-07-20 22:28:29
Writing application         : mkvmerge v23.0.0 ('The Bride Said No') 64-bit
Writing library             : libebml v1.3.6 + libmatroska v1.4.9


Video
ID                          : 1
Format                      : AVC
Format/Info                 : Advanced Video Codec
Format profile              : High@L4.1
Format settings             : CABAC / 5 Ref Frames
Format settings, CABAC      : Yes
Format settings, RefFrames  : 5 frames
Codec ID                    : V_MPEG4/ISO/AVC
Duration                    : 1 h 33 min
Bit rate                    : 4 967 kb/s
Width                       : 1 920 pixels
Height                      : 816 pixels
Display aspect ratio        : 2.35:1
Frame rate mode             : Constant
Frame rate                  : 23.976 (24000/1001) FPS
Color space                 : YUV
Chroma subsampling          : 4:2:0
Bit depth                   : 8 bits
Scan type                   : Progressive
Bits/(Pixel*Frame)          : 0.132
Stream size                 : 3.26 GiB (85%)
Title                       : AVC
Writing library             : x264 core 152 r2851 ba24899
Encoding settings           : cabac=1 / ref=5 / deblock=1:-3:-3 / analyse=0x3:0x113 / me=umh / subme=11 / psy=1 / psy_rd=1.10:0.05 / mixed_ref=1 / me_range=48 / chroma_me=1 / trellis=2 / 8x8dct=1 / cqm=0 / deadzone=21,11 / fast_pskip=0 / chroma_qp_offset=-3 / threads=25 / lookahead_threads=2 / sliced_threads=0 / nr=0 / decimate=1 / interlaced=0 / bluray_compat=0 / constrained_intra=0 / bframes=5 / b_pyramid=2 / b_adapt=2 / b_bias=0 / direct=1 / weightb=1 / open_gop=0 / weightp=2 / keyint=240 / keyint_min=23 / scenecut=40 / intra_refresh=0 / rc_lookahead=45 / rc=crf / mbtree=1 / crf=21.4 / qcomp=0.70 / qpmin=0 / qpmax=69 / qpstep=4 / vbv_maxrate=62500 / vbv_bufsize=78125 / crf_max=0.0 / nal_hrd=none / filler=0 / ip_ratio=1.40 / aq=1:1.10
Language                    : Spanish
Default                     : Yes
Forced                      : No


Audio [Tienes que estar registrado y conectado para ver este vínculo]
ID                          : 2
Format                      : AC-3
Format/Info                 : Audio Coding 3
Format settings, Endianness : Big
Codec ID                    : A_AC3
Duration                    : 1 h 33 min
Bit rate mode               : Constant
Bit rate                    : 448 kb/s
Channel(s)                  : 2 channels
Channel positions           : Front: L R
Sampling rate               : 48.0 kHz
Frame rate                  : 31.250 FPS (1536 SPF)
Bit depth                   : 16 bits
Compression mode            : Lossy
Stream size                 : 301 MiB (8%)
Title                       : AC-3
Language                    : Spanish
Service kind                : Complete Main
Default                     : Yes
Forced                      : No


Audio [Tienes que estar registrado y conectado para ver este vínculo]
ID                          : 3
Format                      : AC-3
Format/Info                 : Audio Coding 3
Format settings, Endianness : Big
Codec ID                    : A_AC3
Duration                    : 1 h 33 min
Bit rate mode               : Constant
Bit rate                    : 448 kb/s
Channel(s)                  : 6 channels
Channel positions           : Front: L C R, Side: L R, LFE
Sampling rate               : 48.0 kHz
Frame rate                  : 31.250 FPS (1536 SPF)
Bit depth                   : 16 bits
Compression mode            : Lossy
Stream size                 : 301 MiB (8%)
Title                       : AC-3
Language                    : English
Service kind                : Complete Main
Default                     : No
Forced                      : No


Text [Tienes que estar registrado y conectado para ver este vínculo]
ID                          : 4
Format                      : UTF-8
Codec ID                    : S_TEXT/UTF8
Codec ID/Info               : UTF-8 Plain Text
Duration                    : 1 h 24 min
Bit rate                    : 36 b/s
Count of elements           : 805
Stream size                 : 22.8 KiB (0%)
Title                       : COMPLETOS
Language                    : Spanish
Default                     : No
Forced                      : No


Text [Tienes que estar registrado y conectado para ver este vínculo]
ID                          : 5
Format                      : UTF-8
Codec ID                    : S_TEXT/UTF8
Codec ID/Info               : UTF-8 Plain Text
Duration                    : 1 h 24 min
Bit rate                    : 33 b/s
Count of elements           : 752
Stream size                 : 20.5 KiB (0%)
Title                       : COMPLETOS
Language                    : English
Default                     : No
Forced                      : No


Menu
00:00:00.000                : en:Chapter 1
00:08:11.241                : en:Chapter 2
00:15:09.826                : en:Chapter 3
00:22:09.411                : en:Chapter 4
00:30:13.812                : en:Chapter 5
00:40:07.905                : en:Chapter 6
00:47:29.055                : en:Chapter 7
00:53:18.445                : en:Chapter 8
01:01:24.180                : en:Chapter 9
01:11:03.926                : en:Chapter 10
01:22:03.085                : en:Chapter 11
01:29:25.569                : en:Chapter 12


Enlaces Descarga
Tusfiles - Uptobox - Userscloud - 1fichier - Depositfiles - Hitfile - k-bagi - Turbobit - Wayupload
En algunos servidores (Tusfiles, Filebebo, Sendit, Userscloud...) es necesario estar registrado para descargar archivos grandes y a mayor velocidad.


Enlaces Online
Rapidvideo - Openload - Vidoza - Streamango - Vidlox - Userscloud - Uptostream
Para ver online en Sendit, Userscloud y Filebebo necesitas estar registrado en su página y usar el navegador Google Chrome


Reproductor
(Rapidvideo)



NOTA: Por favor, si los enlaces están caidos avisa en un comentario para poder resubirlos. Gracias

______________________________________________________
Saludos  Smile
Volver arriba
Permisos de este foro:
No puedes responder a temas en este foro.