Comparte
Ir abajo
avatar
Admin
Administrador
Administrador
Sexo : Masculino
Mensajes : 2264
Puntos : 6891
Reputación : 1323
Fecha de inscripción : 02/04/2012
Localización : España

Terror Winchester: La casa que construyeron los espíritus (2018) [Ver + Descargar] [HD 1080p]

el Dom 22 Jul 2018 - 15:22
Reputación del mensaje :100% (1 voto)

Ficha Técnica
SINOPSIS: Basada en la historia de la mansión Winchester, situada en California, a 50 millas de San Francisco. Este edificio victoriano fue construido por la heredera del creador de los rifles Winchester, Sarah Winchester (Helen Mirren), y su convicción de que los fantasmas la acosaban le llevó a construir más de 160 habitaciones, con escaleras que no llevaban a ninguna parte y puertas que al abrirse descubrían un muro... Todo con la intención de esquivar a los seres del otro mundo.  
TÍTULO ORIGINAL: Winchester
AÑO: [Tienes que estar registrado y conectado para ver este vínculo]
DURACIÓN: 99 min.
PAÍS:  Australia
DIRECCIÓN: Michael Spierig, Peter Spierig, The Spierig Brothers
REPARTO: Helen Mirren, Jason Clarke, Sarah Snook, Angus Sampson, Emily Wiseman, Laura Brent, Tyler Coppin, Dawayne Jordan, Jeffrey W. Jenkins, Thor Carlsson, John Lobato, Xavier Gouault, Jeff Lipary, Finn Scicluna-O'Prey, Homero Lopez
GÉNERO: [Tienes que estar registrado y conectado para ver este vínculo] [Tienes que estar registrado y conectado para ver este vínculo] | [Tienes que estar registrado y conectado para ver este vínculo] [Tienes que estar registrado y conectado para ver este vínculo] [Tienes que estar registrado y conectado para ver este vínculo]

Capturas



Trailer

Info
CALIDAD DE VIDEO: m1080p MPEG4 Video (H264) 1920x804
CALIDAD DE AUDIO 1: Castellano DTS 5.1 768 Kbps
CALIDAD DE AUDIO 2: Castellano AC-3 5.1 448 Kbps
CALIDAD DE AUDIO 3: Inglés AC-3 5.1 448 Kbps
SUBTITULOS: Incluye completos en español e inglés y forzados en español
TAMAÑO: 4.78 GiB
Mediainfo:
Format                      : Matroska
Format version              : Version 4 / Version 2
File size                   : 4.78 GiB
Duration                    : 1 h 39 min
Overall bit rate            : 6 878 kb/s
Movie name                  : Winchester: La casa que construyeron los espíritus - [Tienes que estar registrado y conectado para ver este vínculo]
Encoded date                : UTC 2018-07-21 14:03:24
Writing application         : mkvmerge v23.0.0 ('The Bride Said No') 64-bit
Writing library             : libebml v1.3.6 + libmatroska v1.4.9


Video
ID                          : 1
Format                      : AVC
Format/Info                 : Advanced Video Codec
Format profile              : High@L4.1
Format settings             : CABAC / 5 Ref Frames
Format settings, CABAC      : Yes
Format settings, RefFrames  : 5 frames
Codec ID                    : V_MPEG4/ISO/AVC
Duration                    : 1 h 39 min
Bit rate                    : 5 206 kb/s
Width                       : 1 920 pixels
Height                      : 804 pixels
Display aspect ratio        : 2.40:1
Frame rate mode             : Constant
Frame rate                  : 24.000 FPS
Color space                 : YUV
Chroma subsampling          : 4:2:0
Bit depth                   : 8 bits
Scan type                   : Progressive
Bits/(Pixel*Frame)          : 0.141
Stream size                 : 3.61 GiB (76%)
Title                       : AVC
Writing library             : x264 core 152 r2851 ba24899
Encoding settings           : cabac=1 / ref=5 / deblock=1:-3:-3 / analyse=0x3:0x113 / me=umh / subme=11 / psy=1 / psy_rd=1.10:0.05 / mixed_ref=1 / me_range=48 / chroma_me=1 / trellis=2 / 8x8dct=1 / cqm=0 / deadzone=21,11 / fast_pskip=0 / chroma_qp_offset=-3 / threads=25 / lookahead_threads=2 / sliced_threads=0 / nr=0 / decimate=1 / interlaced=0 / bluray_compat=0 / constrained_intra=0 / bframes=5 / b_pyramid=2 / b_adapt=2 / b_bias=0 / direct=1 / weightb=1 / open_gop=0 / weightp=2 / keyint=240 / keyint_min=23 / scenecut=40 / intra_refresh=0 / rc_lookahead=45 / rc=crf / mbtree=1 / crf=19.6 / qcomp=0.70 / qpmin=0 / qpmax=69 / qpstep=4 / vbv_maxrate=62500 / vbv_bufsize=78125 / crf_max=0.0 / nal_hrd=none / filler=0 / ip_ratio=1.40 / aq=1:1.10
Language                    : Spanish
Default                     : Yes
Forced                      : No


Audio [Tienes que estar registrado y conectado para ver este vínculo]
ID                          : 2
Format                      : DTS
Format/Info                 : Digital Theater Systems
Mode                        : 16
Format settings, Endianness : Big
Codec ID                    : A_DTS
Duration                    : 1 h 39 min
Bit rate mode               : Constant
Bit rate                    : 768 kb/s
Channel(s)                  : 6 channels
Channel positions           : Front: L C R, Side: L R, LFE
Sampling rate               : 48.0 kHz
Frame rate                  : 93.750 FPS (512 SPF)
Bit depth                   : 16 bits
Compression mode            : Lossy
Delay relative to video     : 8 s 745 ms
Stream size                 : 545 MiB (11%)
Title                       : DTS
Language                    : Spanish
Default                     : Yes
Forced                      : No


Audio [Tienes que estar registrado y conectado para ver este vínculo]
ID                          : 3
Format                      : AC-3
Format/Info                 : Audio Coding 3
Format settings, Endianness : Big
Codec ID                    : A_AC3
Duration                    : 1 h 39 min
Bit rate mode               : Constant
Bit rate                    : 448 kb/s
Channel(s)                  : 6 channels
Channel positions           : Front: L C R, Side: L R, LFE
Sampling rate               : 48.0 kHz
Frame rate                  : 31.250 FPS (1536 SPF)
Bit depth                   : 16 bits
Compression mode            : Lossy
Stream size                 : 318 MiB (7%)
Title                       : AC-3
Language                    : Spanish
Service kind                : Complete Main
Default                     : No
Forced                      : No


Audio [Tienes que estar registrado y conectado para ver este vínculo]
ID                          : 4
Format                      : AC-3
Format/Info                 : Audio Coding 3
Format settings, Endianness : Big
Codec ID                    : A_AC3
Duration                    : 1 h 39 min
Bit rate mode               : Constant
Bit rate                    : 448 kb/s
Channel(s)                  : 6 channels
Channel positions           : Front: L C R, Side: L R, LFE
Sampling rate               : 48.0 kHz
Frame rate                  : 31.250 FPS (1536 SPF)
Bit depth                   : 16 bits
Compression mode            : Lossy
Delay relative to video     : 8 s 745 ms
Stream size                 : 318 MiB (6%)
Title                       : AC-3
Language                    : English
Service kind                : Complete Main
Default                     : No
Forced                      : No


Text [Tienes que estar registrado y conectado para ver este vínculo]
ID                          : 5
Format                      : UTF-8
Codec ID                    : S_TEXT/UTF8
Codec ID/Info               : UTF-8 Plain Text
Duration                    : 1 h 29 min
Bit rate                    : 1 b/s
Count of elements           : 31
Stream size                 : 900 Bytes (0%)
Title                       : FORZADOS
Language                    : Spanish
Default                     : Yes
Forced                      : No


Text [Tienes que estar registrado y conectado para ver este vínculo]
ID                          : 6
Format                      : UTF-8
Codec ID                    : S_TEXT/UTF8
Codec ID/Info               : UTF-8 Plain Text
Duration                    : 1 h 29 min
Bit rate                    : 46 b/s
Count of elements           : 915
Stream size                 : 30.3 KiB (0%)
Title                       : COMPLETOS
Language                    : Spanish
Default                     : No
Forced                      : No


Text [Tienes que estar registrado y conectado para ver este vínculo]
ID                          : 7
Format                      : PGS
Muxing mode                 : zlib
Codec ID                    : S_HDMV/PGS
Codec ID/Info               : Picture based subtitle format used on BDs/HD-DVDs
Duration                    : 1 h 29 min
Bit rate                    : 33.8 kb/s
Count of elements           : 1876
Stream size                 : 21.6 MiB (0%)
Title                       : COMPLETOS PGS
Language                    : Spanish
Default                     : No
Forced                      : No


Text [Tienes que estar registrado y conectado para ver este vínculo]
ID                          : 8
Format                      : UTF-8
Codec ID                    : S_TEXT/UTF8
Codec ID/Info               : UTF-8 Plain Text
Duration                    : 1 h 27 min
Bit rate                    : 47 b/s
Count of elements           : 1044
Stream size                 : 30.6 KiB (0%)
Title                       : COMPLETOS
Language                    : English
Default                     : No
Forced                      : No


Menu
00:00:00.000                : en:00:00:00.000
00:04:46.286                : en:00:04:46.286
00:10:01.601                : en:00:10:01.601
00:14:38.878                : en:00:14:38.878
00:21:21.280                : en:00:21:21.280
00:27:20.639                : en:00:27:20.639
00:35:53.151                : en:00:35:53.151
00:41:11.469                : en:00:41:11.469
00:50:03.000                : en:00:50:03.000
00:58:59.536                : en:00:58:59.536
01:06:16.973                : en:01:06:16.973
01:11:19.275                : en:01:11:19.275
01:16:00.556                : en:01:16:00.556
01:21:50.739                : en:01:21:50.739
01:27:04.219                : en:01:27:04.219
01:30:55.450                : en:01:30:55.450


Enlaces Descarga
Tusfiles - Uptobox - Userscloud - 1fichier - Depositfiles - k-bagi - Rapidgator - Wayupload
En algunos servidores (Tusfiles, Filebebo, Sendit, Userscloud...) es necesario estar registrado para descargar archivos grandes y a mayor velocidad.


Enlaces Online
Rapidvideo - Openload - Vidoza - Streamango - Vidlox - Userscloud - Uptostream
Para ver online en Sendit, Userscloud y Filebebo necesitas estar registrado en su página y usar el navegador Google Chrome


NOTA: Por favor, si los enlaces están caidos avisa en un comentario para poder resubirlos. Gracias

______________________________________________________
[Tienes que estar registrado y conectado para ver este vínculo]
Saludos  Smile
Volver arriba
Permisos de este foro:
No puedes responder a temas en este foro.