Comparte
Ir abajo
avatar
Admin
Administrador
Administrador
Sexo : Masculino
Mensajes : 1500
Puntos : 4748
Reputación : 1102
Fecha de inscripción : 02/04/2012
Localización : España

Thriller El final de todo (2018) [Ver Online] [Descargar] [HD 1080p] [Español-Inglés] [Thriller]

el Dom 22 Jul 2018 - 22:19
Reputación del mensaje :100% (1 voto)

Ficha Técnica
SINOPSIS: Tras un misterioso cataclismo, un hombre se propone atravesar el país de punta a punta afrontando mil y un peligros con tal de reencontrarse con su novia embarazada.
TÍTULO ORIGINAL: How It Ends
AÑO: [Tienes que estar registrado y conectado para ver este vínculo]
DURACIÓN: 113 min.
PAÍS:  Estados Unidos
DIRECCIÓN: David M. Rosenthal
REPARTO: Theo James, Kerry Bishé, Forest Whitaker, Kat Graham, Mark O'Brien, Eric Keenleyside, Grace Dove, Nancy Sorel, RJ Fetherstonhaugh, Lanie McAuley, Josh Cruddas, Aaron Hughes
GÉNERO: [Tienes que estar registrado y conectado para ver este vínculo] [Tienes que estar registrado y conectado para ver este vínculo] | [Tienes que estar registrado y conectado para ver este vínculo]

Capturas



Trailer

Info
CALIDAD DE VIDEO: m1080p MPEG4 Video (H264) 1920x1080
CALIDAD DE AUDIO 1: Castellano AC-3 5.1 448 Kbps
CALIDAD DE AUDIO 2: Inglés AC-3 5.1 448 Kbps
SUBTITULOS: Incluye completos en español e inglés y forzados en español
TAMAÑO: 3.19 GiB
Mediainfo:
Format                      : Matroska
Format version              : Version 4 / Version 2
File size                   : 3.19 GiB
Duration                    : 1 h 53 min
Overall bit rate mode       : Variable
Overall bit rate            : 4 036 kb/s
Movie name                  : El Final de Todo - [Tienes que estar registrado y conectado para ver este vínculo]
Encoded date                : UTC 2018-07-21 21:12:40
Writing application         : mkvmerge v23.0.0 ('The Bride Said No') 64-bit
Writing library             : libebml v1.3.6 + libmatroska v1.4.9


Video
ID                          : 1
Format                      : AVC
Format/Info                 : Advanced Video Codec
Format profile              : Main@L4
Format settings             : CABAC / 3 Ref Frames
Format settings, CABAC      : Yes
Format settings, RefFrames  : 3 frames
Codec ID                    : V_MPEG4/ISO/AVC
Duration                    : 1 h 53 min
Bit rate mode               : Variable
Bit rate                    : 3 160 kb/s
Maximum bit rate            : 4 740 kb/s
Width                       : 1 920 pixels
Height                      : 1 080 pixels
Display aspect ratio        : 16:9
Frame rate mode             : Constant
Frame rate                  : 23.976 (24000/1001) FPS
Color space                 : YUV
Chroma subsampling          : 4:2:0
Bit depth                   : 8 bits
Scan type                   : Progressive
Bits/(Pixel*Frame)          : 0.064
Stream size                 : 2.48 GiB (78%)
Title                       : AVC
Writing library             : x264 core 148 r2715 7e75228
Encoding settings           : cabac=1 / ref=3 / deblock=1:0:0 / analyse=0x1:0x111 / me=umh / subme=10 / psy=1 / psy_rd=1.00:0.00 / mixed_ref=1 / me_range=24 / chroma_me=1 / trellis=2 / 8x8dct=0 / cqm=0 / deadzone=21,11 / fast_pskip=1 / chroma_qp_offset=-2 / threads=8 / lookahead_threads=1 / sliced_threads=0 / nr=0 / decimate=1 / interlaced=0 / bluray_compat=0 / stitchable=1 / constrained_intra=0 / bframes=2 / b_pyramid=0 / b_adapt=2 / b_bias=0 / direct=3 / weightb=1 / open_gop=0 / weightp=2 / keyint=48 / keyint_min=25 / scenecut=0 / intra_refresh=0 / rc_lookahead=48 / rc=2pass / mbtree=1 / bitrate=3160 / ratetol=1.0 / qcomp=0.50 / qpmin=6 / qpmax=51 / qpstep=4 / cplxblur=20.0 / qblur=0.5 / vbv_maxrate=4740 / vbv_bufsize=6320 / nal_hrd=vbr / filler=0 / ip_ratio=1.40 / aq=1:1.00
Language                    : Spanish
Default                     : Yes
Forced                      : No


Audio [Tienes que estar registrado y conectado para ver este vínculo]
ID                          : 2
Format                      : AC-3
Format/Info                 : Audio Coding 3
Format settings, Endianness : Big
Codec ID                    : A_AC3
Duration                    : 1 h 53 min
Bit rate mode               : Constant
Bit rate                    : 448 kb/s
Channel(s)                  : 6 channels
Channel positions           : Front: L C R, Side: L R, LFE
Sampling rate               : 48.0 kHz
Frame rate                  : 31.250 FPS (1536 SPF)
Bit depth                   : 16 bits
Compression mode            : Lossy
Stream size                 : 363 MiB (11%)
Title                       : AC-3
Language                    : Spanish
Service kind                : Complete Main
Default                     : Yes
Forced                      : Yes


Audio [Tienes que estar registrado y conectado para ver este vínculo]
ID                          : 3
Format                      : AC-3
Format/Info                 : Audio Coding 3
Format settings, Endianness : Big
Codec ID                    : A_AC3
Duration                    : 1 h 52 min
Bit rate mode               : Constant
Bit rate                    : 448 kb/s
Channel(s)                  : 6 channels
Channel positions           : Front: L C R, Side: L R, LFE
Sampling rate               : 48.0 kHz
Frame rate                  : 31.250 FPS (1536 SPF)
Bit depth                   : 16 bits
Compression mode            : Lossy
Stream size                 : 361 MiB (11%)
Title                       : AC-3
Language                    : English
Service kind                : Complete Main
Default                     : No
Forced                      : No


Text [Tienes que estar registrado y conectado para ver este vínculo]
ID                          : 4
Format                      : UTF-8
Codec ID                    : S_TEXT/UTF8
Codec ID/Info               : UTF-8 Plain Text
Duration                    : 1 h 47 min
Bit rate                    : 0 b/s
Count of elements           : 22
Stream size                 : 475 Bytes (0%)
Title                       : FORZADOS
Language                    : Spanish
Default                     : Yes
Forced                      : Yes


Text [Tienes que estar registrado y conectado para ver este vínculo]
ID                          : 5
Format                      : UTF-8
Codec ID                    : S_TEXT/UTF8
Codec ID/Info               : UTF-8 Plain Text
Duration                    : 1 h 46 min
Bit rate                    : 37 b/s
Count of elements           : 1049
Stream size                 : 29.1 KiB (0%)
Title                       : COMPLETOS
Language                    : Spanish
Default                     : No
Forced                      : No


Text [Tienes que estar registrado y conectado para ver este vínculo]
ID                          : 6
Format                      : UTF-8
Codec ID                    : S_TEXT/UTF8
Codec ID/Info               : UTF-8 Plain Text
Duration                    : 1 h 44 min
Bit rate                    : 43 b/s
Count of elements           : 1040
Stream size                 : 33.3 KiB (0%)
Title                       : COMPLETOS
Language                    : English
Default                     : No
Forced                      : No


Enlaces Descarga
Tusfiles - Uptobox - Userscloud - 1fichier - Depositfiles - Filerio - Rapidgator - Wayupload
En algunos servidores (Tusfiles, Filebebo, Sendit, Userscloud...) es necesario estar registrado para descargar archivos grandes y a mayor velocidad.


Enlaces Online
Rapidvideo - ok.ru - Openload - Vidoza - Streamango - Streamcherry - Vidlox - Vidcloud - Userscloud - Uptostream
Para ver online en Sendit, Userscloud y Filebebo necesitas estar registrado en su página y usar el navegador Google Chrome


Reproductor
(ok.ru)



NOTA: Por favor, si los enlaces están caidos avisa en un comentario para poder resubirlos. Gracias


Última edición por Admin el Jue 4 Oct 2018 - 1:36, editado 3 veces (Razón : Resubir enlaces)

______________________________________________________
Saludos  Smile
Fray Tasmania
Nuevo Flipax
Nuevo Flipax
Sexo : Masculino
Mensajes : 6
Puntos : 10
Reputación : 4
Fecha de inscripción : 24/09/2018

Thriller Re: El final de todo (2018) [Ver Online] [Descargar] [HD 1080p] [Español-Inglés] [Thriller]

el Miér 3 Oct 2018 - 20:12
Reputación del mensaje :100% (1 voto)
Enlace a 1fichier no conecta. En esta misma página, otros tres o cuatro enlaces con 1fichier de sendas películas tampoco fiuncionan, pero lamento no poder indicar cuáles son. Saludos afectuosos.
avatar
Admin
Administrador
Administrador
Sexo : Masculino
Mensajes : 1500
Puntos : 4748
Reputación : 1102
Fecha de inscripción : 02/04/2012
Localización : España

Thriller Re: El final de todo (2018) [Ver Online] [Descargar] [HD 1080p] [Español-Inglés] [Thriller]

el Miér 3 Oct 2018 - 22:13
[Tienes que estar registrado y conectado para ver este vínculo] escribió:Enlace a 1fichier no conecta. En esta misma página, otros tres o cuatro enlaces con 1fichier de sendas películas tampoco fiuncionan, pero lamento no poder indicar cuáles son. Saludos afectuosos.

Enlaces resubidos

______________________________________________________
Saludos  Smile
Volver arriba
Permisos de este foro:
No puedes responder a temas en este foro.