Comparte
Ir abajo
avatar
Admin
Administrador
Administrador
Sexo : Masculino
Mensajes : 1514
Puntos : 4771
Reputación : 1103
Fecha de inscripción : 02/04/2012
Localización : España

Pirateo El Renacido [Ver Online] [Descargar] [HD 1080p] [Español-Inglés] [Aventuras]

el Jue 26 Jul 2018 - 0:42
Reputación del mensaje :100% (1 voto)

Ficha Técnica
SINOPSIS: Año 1823. En las profundidades de la América salvaje, el explorador Hugh Glass (Leonardo DiCaprio) participa junto a su hijo mestizo Hawk en una expedición de tramperos que recolecta pieles. Glass resulta gravemente herido por el ataque de un oso y es abandonado a su suerte por un traicionero miembro de su equipo, John Fitzgerald (Tom Hardy). Con la fuerza de voluntad como su única arma, Glass deberá enfrentarse a un territorio hostil, a un invierno brutal y a la guerra constante entre las tribus de nativos americanos, en una búsqueda implacable para conseguir vengarse.
TÍTULO ORIGINAL: The Revenant
AÑO: [Tienes que estar registrado y conectado para ver este vínculo]
DURACIÓN: 156 min.
PAÍS:  Estados Unidos
DIRECTOR: Alejandro González Iñárritu
REPARTO: Leonardo DiCaprio, Tom Hardy, Domhnall Gleeson, Will Poulter, Forrest Goodluck, Paul Anderson, Kristoffer Joner, Joshua Burge, Duane Howard, Melaw Nakehk'o, Fabrice Adde, Arthur RedCloud, Christopher Rosamond, Robert Moloney, Lukas Haas, Brendan Fletcher, Tyson Wood, McCaleb Burnett
GÉNERO: [Tienes que estar registrado y conectado para ver este vínculo] [Tienes que estar registrado y conectado para ver este vínculo] | [Tienes que estar registrado y conectado para ver este vínculo] [Tienes que estar registrado y conectado para ver este vínculo] [Tienes que estar registrado y conectado para ver este vínculo] [Tienes que estar registrado y conectado para ver este vínculo] [Tienes que estar registrado y conectado para ver este vínculo]

Capturas



Trailer

Info
Formato: mp4
Calidad: HD 1080p
Audio: Español Castellano
Mediainfo:
General
Complete name               : C:\Users\Admin\Downloads\The revenant 2015 1080p-dual-cast\El Renacido m1080p Spa-Eng.mp4
Format                      : MPEG-4
Codec ID                    : M4V  (isom/avc1/M4A /M4V /mp42)
File size                   : 2.40 GiB
Duration                    : 2 h 36 min
Overall bit rate mode       : Variable
Overall bit rate            : 2 199 kb/s
Encoded date                : UTC 2016-04-18 19:34:37
Tagged date                 : UTC 2016-04-18 19:34:37
Writing application         : My MP4Box GUI 0.6.0.6

Video
ID                          : 1
Format                      : AVC
Format/Info                 : Advanced Video Codec
Format profile              : High@L4.1
Format settings             : CABAC / 5 Ref Frames
Format settings, CABAC      : Yes
Format settings, RefFrames  : 5 frames
Codec ID                    : avc1
Codec ID/Info               : Advanced Video Coding
Duration                    : 2 h 36 min
Bit rate                    : 1 900 kb/s
Maximum bit rate            : 11.2 Mb/s
Width                       : 1 920 pixels
Height                      : 808 pixels
Display aspect ratio        : 2.40:1
Frame rate mode             : Constant
Frame rate                  : 23.976 (24000/1001) FPS
Color space                 : YUV
Chroma subsampling          : 4:2:0
Bit depth                   : 8 bits
Scan type                   : Progressive
Bits/(Pixel*Frame)          : 0.051
Stream size                 : 2.07 GiB (86%)
Title                       : The.revenant.2015.1080p.bluray.x264-sparks-1_track1_und.h264
Writing library             : x264 core 142 r2479 dd79a61
Encoding settings           : cabac=1 / ref=5 / deblock=1👎-1 / analyse=0x3:0x113 / me=umh / subme=8 / psy=1 / psy_rd=1.00:0.15 / mixed_ref=1 / me_range=16 / chroma_me=1 / trellis=1 / 8x8dct=1 / cqm=0 / deadzone=21,11 / fast_pskip=1 / chroma_qp_offset=-3 / threads=12 / lookahead_threads=2 / sliced_threads=0 / nr=0 / decimate=1 / interlaced=0 / bluray_compat=0 / constrained_intra=0 / bframes=3 / b_pyramid=2 / b_adapt=2 / b_bias=0 / direct=3 / weightb=1 / open_gop=0 / weightp=2 / keyint=240 / keyint_min=24 / scenecut=40 / intra_refresh=0 / rc_lookahead=50 / rc=2pass / mbtree=1 / bitrate=1900 / ratetol=1.0 / qcomp=0.60 / qpmin=0 / qpmax=69 / qpstep=4 / cplxblur=20.0 / qblur=0.5 / vbv_maxrate=62500 / vbv_bufsize=78125 / nal_hrd=none / filler=0 / ip_ratio=1.40 / aq=1:1.00
Encoded date                : UTC 2016-04-18 19:34:37
Tagged date                 : UTC 2016-04-18 19:35:05
Color range                 : Limited
Color primaries             : BT.709
Transfer characteristics    : BT.709
Matrix coefficients         : BT.709

Audio [Tienes que estar registrado y conectado para ver este vínculo]
ID                          : 2
Format                      : AAC
Format/Info                 : Advanced Audio Codec
Format profile              : LC
Codec ID                    : mp4a-40-2
Duration                    : 2 h 36 min
Bit rate mode               : Variable
Bit rate                    : 163 kb/s
Maximum bit rate            : 193 kb/s
Channel(s)                  : 2 channels
Channel positions           : Front: L R
Sampling rate               : 48.0 kHz
Frame rate                  : 46.875 FPS (1024 SPF)
Compression mode            : Lossy
Stream size                 : 182 MiB (7%)
Title                       : the-revenant-cast_fixed50.aac
Language                    : Spanish
Default                     : Yes
Alternate group             : 1
Encoded date                : UTC 2016-04-18 19:34:55
Tagged date                 : UTC 2016-04-18 19:35:05

Audio [Tienes que estar registrado y conectado para ver este vínculo]
ID                          : 3
Format                      : AAC
Format/Info                 : Advanced Audio Codec
Format profile              : LC
Codec ID                    : mp4a-40-2
Duration                    : 2 h 36 min
Source duration             : 2 h 36 min
Bit rate mode               : Variable
Nominal bit rate            : 132 kb/s
Maximum bit rate            : 154 kb/s
Channel(s)                  : 2 channels
Channel positions           : Front: L R
Sampling rate               : 48.0 kHz
Frame rate                  : 46.875 FPS (1024 SPF)
Compression mode            : Lossy
Source stream size          : 146 MiB (6%)
Title                       : The.revenant.2015.1080p.bluray.x264-sparks-1_track2_eng.aac
Language                    : English
Default                     : No
Alternate group             : 1
Encoded date                : UTC 2016-04-18 19:35:00
Tagged date                 : UTC 2016-04-18 19:35:05

Text [Tienes que estar registrado y conectado para ver este vínculo]
ID                          : 4
Format                      : Timed Text
Muxing mode                 : sbtl
Codec ID                    : tx3g
Duration                    : 2 h 27 min
Bit rate mode               : Variable
Bit rate                    : 30 b/s
Stream size                 : 32.3 KiB (0%)
Title                       : The.revenant.2015.1080p-dual-lat.srt
Language                    : Spanish
Default                     : Yes
Forced                      : No
Alternate group             : 2
Encoded date                : UTC 2016-04-18 19:35:05
Tagged date                 : UTC 2016-04-18 19:35:05

Text [Tienes que estar registrado y conectado para ver este vínculo]
ID                          : 5
Format                      : Timed Text
Muxing mode                 : sbtl
Codec ID                    : tx3g
Duration                    : 2 h 36 min
Bit rate mode               : Variable
Bit rate                    : 4 b/s
Stream size                 : 4.74 KiB (0%)
Title                       : The.revenant.2015.1080p-dual-lat-forzados.srt
Language                    : Spanish
Default                     : No
Forced                      : No
Alternate group             : 2
Encoded date                : UTC 2016-04-18 19:35:05
Tagged date                 : UTC 2016-04-18 19:35:05
Enlaces
Click Aquí Para Descargar en Uptobox


Reproductor
(Uptostream)




NOTA: Por favor, si los enlaces están caidos avisa en un comentario para poder resubirlos. Gracias

______________________________________________________
Saludos  Smile
Volver arriba
Permisos de este foro:
No puedes responder a temas en este foro.