Comparte
Ir abajo
avatar
Admin
Administrador
Administrador
Sexo : Masculino
Mensajes : 1169
Puntos : 3971
Reputación : 976
Fecha de inscripción : 02/04/2012
Localización : España

Thriller El Cairo confidencial (2017) [Ver Online] [Descargar] [1080p] [Español-Francés] [Thriller]

el Vie 27 Jul 2018 - 0:16
Reputación del mensaje :100% (1 voto)

Ficha Técnica
SINOPSIS: Noredin, un detective corrupto con un futuro brillante en el cuerpo de policía, y cuyo principal propósito no es exactamente hacer el bien sino hacerse rico, es enviado al hotel Nile Hilton, donde acaban de descubrir el cadáver de una hermosa mujer. La identidad de ésta, sus conexiones con las élites de El Cairo y otros incidentes más personales acabarán llevando a Noredin a tomar decisiones trascendentales y a descubrirse a sí mismo.
TÍTULO ORIGINAL: The Nile Hilton Incident
AÑO: [Tienes que estar registrado y conectado para ver este vínculo]
DURACIÓN: 106 min.
PAÍS:  Suecia
DIRECCIÓN: Tarik Saleh
REPARTO: Fares Fares, Tareq Abdalla, Yasser Ali Maher, Nael Ali, Hania Amar, Slimane Dazi, Ger Duany, Ahmed Abdelhamid Hefny, Ahmed Khairy, Mari Malek, Ahmed Selim, Hichem Yacoubi, Mohamed Yousry
GÉNERO: [Tienes que estar registrado y conectado para ver este vínculo] | [Tienes que estar registrado y conectado para ver este vínculo]

Capturas



Trailer

Info
CALIDAD DE VIDEO: m1080p MPEG4 Video (H264) 1920x804
CALIDAD DE AUDIO 1: Castellano AC-3 5.1 448 Kbps
CALIDAD DE AUDIO 2: Francés AC-3 5.1 448 Kbps
SUBTITULOS: Incluye completos en español e inglés y forzados en español
TAMAÑO: 4.65 GiB
Mediainfo:
Format                      : Matroska
Format version              : Version 4 / Version 2
File size                   : 4.65 GiB
Duration                    : 1 h 51 min
Overall bit rate            : 5 994 kb/s
Movie name                  : El Cairo Confidencial - [Tienes que estar registrado y conectado para ver este vínculo]
Encoded date                : UTC 2018-07-26 01:18:50
Writing application         : mkvmerge v23.0.0 ('The Bride Said No') 64-bit
Writing library             : libebml v1.3.6 + libmatroska v1.4.9


Video
ID                          : 1
Format                      : AVC
Format/Info                 : Advanced Video Codec
Format profile              : High@L4.1
Format settings             : CABAC / 5 Ref Frames
Format settings, CABAC      : Yes
Format settings, RefFrames  : 5 frames
Codec ID                    : V_MPEG4/ISO/AVC
Duration                    : 1 h 51 min
Bit rate                    : 5 100 kb/s
Width                       : 1 920 pixels
Height                      : 804 pixels
Display aspect ratio        : 2.40:1
Frame rate mode             : Constant
Frame rate                  : 23.976 (24000/1001) FPS
Color space                 : YUV
Chroma subsampling          : 4:2:0
Bit depth                   : 8 bits
Scan type                   : Progressive
Bits/(Pixel*Frame)          : 0.138
Stream size                 : 3.95 GiB (85%)
Title                       : AVC
Writing library             : x264 core 155 r2901 7d0ff22
Encoding settings           : cabac=1 / ref=5 / deblock=1:-3:-3 / analyse=0x3:0x113 / me=umh / subme=11 / psy=1 / psy_rd=1.10:0.00 / mixed_ref=1 / me_range=48 / chroma_me=1 / trellis=2 / 8x8dct=1 / cqm=0 / deadzone=21,11 / fast_pskip=0 / chroma_qp_offset=-2 / threads=48 / lookahead_threads=4 / sliced_threads=0 / nr=0 / decimate=1 / interlaced=0 / bluray_compat=0 / constrained_intra=0 / bframes=10 / b_pyramid=2 / b_adapt=2 / b_bias=0 / direct=1 / weightb=1 / open_gop=0 / weightp=2 / keyint=240 / keyint_min=23 / scenecut=40 / intra_refresh=0 / rc_lookahead=80 / rc=2pass / mbtree=1 / bitrate=5100 / ratetol=2.0 / qcomp=0.70 / qpmin=0 / qpmax=69 / qpstep=4 / cplxblur=20.0 / qblur=0.5 / vbv_maxrate=62500 / vbv_bufsize=78125 / nal_hrd=none / filler=0 / ip_ratio=1.40 / aq=1:1.10
Default                     : Yes
Forced                      : No
Color range                 : Limited
Color primaries             : BT.709
Transfer characteristics    : BT.709
Matrix coefficients         : BT.709


Audio [Tienes que estar registrado y conectado para ver este vínculo]
ID                          : 2
Format                      : AC-3
Format/Info                 : Audio Coding 3
Format settings, Endianness : Big
Codec ID                    : A_AC3
Duration                    : 1 h 50 min
Bit rate mode               : Constant
Bit rate                    : 448 kb/s
Channel(s)                  : 6 channels
Channel positions           : Front: L C R, Side: L R, LFE
Sampling rate               : 48.0 kHz
Frame rate                  : 31.250 FPS (1536 SPF)
Bit depth                   : 16 bits
Compression mode            : Lossy
Stream size                 : 356 MiB (7%)
Title                       : AC-3
Language                    : Spanish
Service kind                : Complete Main
Default                     : Yes
Forced                      : Yes


Audio [Tienes que estar registrado y conectado para ver este vínculo]
ID                          : 3
Format                      : AC-3
Format/Info                 : Audio Coding 3
Format settings, Endianness : Big
Codec ID                    : A_AC3
Duration                    : 1 h 51 min
Bit rate mode               : Constant
Bit rate                    : 448 kb/s
Channel(s)                  : 6 channels
Channel positions           : Front: L C R, Side: L R, LFE
Sampling rate               : 48.0 kHz
Frame rate                  : 31.250 FPS (1536 SPF)
Bit depth                   : 16 bits
Compression mode            : Lossy
Stream size                 : 356 MiB (7%)
Title                       : AC-3
Language                    : French
Service kind                : Complete Main
Default                     : No
Forced                      : No


Text [Tienes que estar registrado y conectado para ver este vínculo]
ID                          : 4
Format                      : UTF-8
Codec ID                    : S_TEXT/UTF8
Codec ID/Info               : UTF-8 Plain Text
Duration                    : 1 h 37 min
Bit rate                    : 1 b/s
Count of elements           : 40
Stream size                 : 974 Bytes (0%)
Title                       : FORZADOS
Language                    : Spanish
Default                     : Yes
Forced                      : Yes


Text [Tienes que estar registrado y conectado para ver este vínculo]
ID                          : 5
Format                      : UTF-8
Codec ID                    : S_TEXT/UTF8
Codec ID/Info               : UTF-8 Plain Text
Duration                    : 1 h 45 min
Bit rate                    : 34 b/s
Count of elements           : 858
Stream size                 : 26.6 KiB (0%)
Title                       : COMPLETOS
Language                    : Spanish
Default                     : No
Forced                      : No


Text [Tienes que estar registrado y conectado para ver este vínculo]
ID                          : 6
Format                      : UTF-8
Codec ID                    : S_TEXT/UTF8
Codec ID/Info               : UTF-8 Plain Text
Duration                    : 1 h 45 min
Bit rate                    : 30 b/s
Count of elements           : 882
Stream size                 : 23.3 KiB (0%)
Title                       : COMPLETOS
Language                    : English
Default                     : No
Forced                      : No


Menu
00:00:00.000                : en:Chapter 01
00:09:42.665                : en:Chapter 02
00:21:48.390                : en:Chapter 03
00:31:53.745                : en:Chapter 04
00:44:00.596                : en:Chapter 05
01:01:56.004                : en:Chapter 06
01:14:48.859                : en:Chapter 07
01:23:31.965                : en:Chapter 08
01:32:31.045                : en:Chapter 09
01:42:03.492                : en:Chapter 10


Enlaces Descarga
Tusfiles - Uptobox - 1fichier - Depositfiles - k-bagi - Rapidgator - Wayupload
En algunos servidores (Tusfiles, Filebebo, Sendit, Userscloud...) es necesario estar registrado para descargar archivos grandes y a mayor velocidad.


Enlaces Online
ok.ru - Rapidvideo - Openload - Vidoza - Streamango - Vidlox - Userscloud - Vidcloud - Uptostream
Para ver online en Sendit, Userscloud y Filebebo necesitas estar registrado en su página y usar el navegador Google Chrome


Reproductor
(ok.ru)



NOTA: Por favor, si los enlaces están caidos avisa en un comentario para poder resubirlos. Gracias

______________________________________________________
Saludos  Smile
Volver arriba
Permisos de este foro:
No puedes responder a temas en este foro.