Comparte
Ir abajo
avatar
Admin
Administrador
Administrador
Sexo : Masculino
Mensajes : 1169
Puntos : 3971
Reputación : 976
Fecha de inscripción : 02/04/2012
Localización : España

Drama Perdido (2017) [Ver Online] [Descargar] [HD 1080p] [Español-Francés] [Drama, Thriller]

el Dom 29 Jul 2018 - 4:44
Reputación del mensaje :100% (1 voto)

Ficha Técnica
SINOPSIS: Un padre muy ocupado hace numerosos viajes por África, Sudamérica y Oriente Medio. La pasión que siente por su trabajo le ha distanciado de sus seres queridos. Hace tres años que se divorció, y desde entonces ha visto a su hijo en contadas ocasiones. Pero cuando éste desaparece, se ve obligado a aparcar su vida profesional, y comienza entonces a descubrir muchas cosas sobre su exmujer y su hijo. Un terrible sentimiento de culpa le invade, y decide encontrar a su hijo, cueste lo que cueste.
TÍTULO ORIGINAL: Mon garçon
AÑO: [Tienes que estar registrado y conectado para ver este vínculo]
DURACIÓN: 84 min.
PAÍS:  Francia
DIRECCIÓN: Christian Carion
REPARTO: Guillaume Canet, Mélanie Laurent, Olivier de Benoist, Marc Robert, Lino Papa, Pierre Langlois
GÉNERO: [Tienes que estar registrado y conectado para ver este vínculo] [Tienes que estar registrado y conectado para ver este vínculo] | [Tienes que estar registrado y conectado para ver este vínculo] / [Tienes que estar registrado y conectado para ver este vínculo]

Capturas



Trailer

Info
CALIDAD DE VIDEO: m1080p MPEG4 Video (H264) 1920x804
CALIDAD DE AUDIO 1: Castellano AC-3 5.1 448 Kbps
CALIDAD DE AUDIO 2: Francés AC-3 5.1 448 Kbps
SUBTITULOS: Incluye completos en español y francés y forzados en español
TAMAÑO: 4.64 GiB
Mediainfo:
Format                      : Matroska
Format version              : Version 4 / Version 2
File size                   : 4.64 GiB
Duration                    : 1 h 24 min
Overall bit rate            : 7 811 kb/s
Movie name                  : Perdido - [Tienes que estar registrado y conectado para ver este vínculo]
Encoded date                : UTC 2018-07-28 16:31:27
Writing application         : mkvmerge v23.0.0 ('The Bride Said No') 64-bit
Writing library             : libebml v1.3.6 + libmatroska v1.4.9


Video
ID                          : 1
Format                      : AVC
Format/Info                 : Advanced Video Codec
Format profile              : High@L4.1
Format settings             : CABAC / 5 Ref Frames
Format settings, CABAC      : Yes
Format settings, RefFrames  : 5 frames
Codec ID                    : V_MPEG4/ISO/AVC
Duration                    : 1 h 24 min
Bit rate                    : 6 907 kb/s
Width                       : 1 920 pixels
Height                      : 804 pixels
Display aspect ratio        : 2.40:1
Frame rate mode             : Constant
Frame rate                  : 23.976 (24000/1001) FPS
Color space                 : YUV
Chroma subsampling          : 4:2:0
Bit depth                   : 8 bits
Scan type                   : Progressive
Bits/(Pixel*Frame)          : 0.187
Stream size                 : 4.10 GiB (88%)
Title                       : AVC
Writing library             : x264 core 155 r2901 7d0ff22
Encoding settings           : cabac=1 / ref=5 / deblock=1:-3:-3 / analyse=0x3:0x113 / me=umh / subme=11 / psy=1 / psy_rd=1.10:0.00 / mixed_ref=1 / me_range=48 / chroma_me=1 / trellis=2 / 8x8dct=1 / cqm=0 / deadzone=21,11 / fast_pskip=0 / chroma_qp_offset=-2 / threads=25 / lookahead_threads=6 / sliced_threads=0 / nr=0 / decimate=1 / interlaced=0 / bluray_compat=0 / constrained_intra=0 / bframes=10 / b_pyramid=2 / b_adapt=2 / b_bias=0 / direct=1 / weightb=1 / open_gop=0 / weightp=2 / keyint=240 / keyint_min=23 / scenecut=40 / intra_refresh=0 / rc_lookahead=80 / rc=crf / mbtree=1 / crf=20.5 / qcomp=0.67 / qpmin=0 / qpmax=69 / qpstep=4 / vbv_maxrate=62500 / vbv_bufsize=78125 / crf_max=0.0 / nal_hrd=none / filler=0 / ip_ratio=1.40 / aq=1:1.10
Default                     : Yes
Forced                      : No
Color range                 : Limited
Color primaries             : BT.709
Transfer characteristics    : BT.709
Matrix coefficients         : BT.709


Audio [Tienes que estar registrado y conectado para ver este vínculo]
ID                          : 2
Format                      : AC-3
Format/Info                 : Audio Coding 3
Format settings, Endianness : Big
Codec ID                    : A_AC3
Duration                    : 1 h 24 min
Bit rate mode               : Constant
Bit rate                    : 448 kb/s
Channel(s)                  : 6 channels
Channel positions           : Front: L C R, Side: L R, LFE
Sampling rate               : 48.0 kHz
Frame rate                  : 31.250 FPS (1536 SPF)
Bit depth                   : 16 bits
Compression mode            : Lossy
Stream size                 : 272 MiB (6%)
Title                       : AC-3
Language                    : Spanish
Service kind                : Complete Main
Default                     : Yes
Forced                      : Yes


Audio [Tienes que estar registrado y conectado para ver este vínculo]
ID                          : 3
Format                      : AC-3
Format/Info                 : Audio Coding 3
Format settings, Endianness : Big
Codec ID                    : A_AC3
Duration                    : 1 h 24 min
Bit rate mode               : Constant
Bit rate                    : 448 kb/s
Channel(s)                  : 6 channels
Channel positions           : Front: L C R, Side: L R, LFE
Sampling rate               : 48.0 kHz
Frame rate                  : 31.250 FPS (1536 SPF)
Bit depth                   : 16 bits
Compression mode            : Lossy
Stream size                 : 272 MiB (6%)
Title                       : AC-3
Language                    : French
Service kind                : Complete Main
Default                     : No
Forced                      : No


Text [Tienes que estar registrado y conectado para ver este vínculo]
ID                          : 4
Format                      : UTF-8
Codec ID                    : S_TEXT/UTF8
Codec ID/Info               : UTF-8 Plain Text
Duration                    : 4 s 963 ms
Bit rate                    : 11 b/s
Count of elements           : 1
Stream size                 : 7.00 Bytes (0%)
Title                       : FORZADOS
Language                    : Spanish
Default                     : No
Forced                      : Yes


Text [Tienes que estar registrado y conectado para ver este vínculo]
ID                          : 5
Format                      : UTF-8
Codec ID                    : S_TEXT/UTF8
Codec ID/Info               : UTF-8 Plain Text
Duration                    : 1 h 20 min
Bit rate                    : 39 b/s
Count of elements           : 638
Stream size                 : 23.2 KiB (0%)
Title                       : COMPLETOS
Language                    : Spanish
Default                     : No
Forced                      : No


Text [Tienes que estar registrado y conectado para ver este vínculo]
ID                          : 6
Format                      : PGS
Muxing mode                 : zlib
Codec ID                    : S_HDMV/PGS
Codec ID/Info               : Picture based subtitle format used on BDs/HD-DVDs
Duration                    : 1 h 24 min
Bit rate                    : 21.2 kb/s
Count of elements           : 1532
Stream size                 : 12.8 MiB (0%)
Title                       : COMPLETOS
Language                    : French
Default                     : No
Forced                      : No


Menu
00:00:00.000                : :Chapter 1
00:04:05.995                : :Chapter 2
00:09:25.565                : :Chapter 3
00:17:46.940                : :Chapter 4
00:26:30.130                : :Chapter 5
00:35:04.852                : :Chapter 6
00:38:50.703                : :Chapter 7
00:49:37.099                : :Chapter 8
00:53:56.733                : :Chapter 9
00:59:22.267                : :Chapter 10
01:14:15.909                : :Chapter 11
01:22:01.082                : :Chapter 12


Enlaces Descarga
Tusfiles - Uptobox - Userscloud - 1fichier - Depositfiles - k-bagi - Rapidgator - Wayupload
En algunos servidores (Tusfiles, Filebebo, Sendit, Userscloud...) es necesario estar registrado para descargar archivos grandes y a mayor velocidad.


Enlaces Online
Rapidvideo - Openload - Vidoza - Streamango - Vidlox - Uptostream
Para ver online en Sendit, Userscloud y Filebebo necesitas estar registrado en su página y usar el navegador Google Chrome


Reproductor
(Vidoza)



NOTA: Por favor, si los enlaces están caidos avisa en un comentario para poder resubirlos. Gracias

______________________________________________________
Saludos  Smile
Volver arriba
Permisos de este foro:
No puedes responder a temas en este foro.