Comparte
Ir abajo
avatar
Admin
Administrador
Administrador
Sexo : Masculino
Mensajes : 1903
Puntos : 5835
Reputación : 1224
Fecha de inscripción : 02/04/2012
Localización : España

Terror No dormirás (2018) [Ver Online] [Descargar] [HD 1080p] [Español] [Terror]

el Dom 29 Jul 2018 - 12:06
Reputación del mensaje :100% (1 voto)

Ficha Técnica
SINOPSIS: En un hospital psiquiátrico abandonado, un grupo de teatro vanguardista experimenta con el insomnio para la preparación del montaje de una obra creada veinte años atrás por un grupo de pacientes. Con el paso de los días sin dormir, alcanzan nuevos umbrales de percepción, que los enfrentan a energías e historias ocultas del lugar. Cuando Bianca, una joven promesa del teatro, se incorpora al elenco, en competencia por el papel principal, debe sobrevivir no solo a la intensidad del trabajo y sus compañeros, sino a una fuerza desconocida que la empuja, como a los demás, al trágico desenlace de la puesta en escena original.
TÍTULO ORIGINAL: No dormirás
AÑO: [Tienes que estar registrado y conectado para ver este vínculo]
DURACIÓN: 105 min.
PAÍS:  Uruguay
DIRECCIÓN: Gustavo Hernández
REPARTO: Eva De Dominici,  Belén Rueda,  Natalia de Molina,  Germán Palacios,  Eugenia Tobal, Susana Hornos,  Juan Manuel Guilera,  Joche Rubio,  María Zabay, Miguel Angel Maciel
GÉNERO: [Tienes que estar registrado y conectado para ver este vínculo] [Tienes que estar registrado y conectado para ver este vínculo] | [Tienes que estar registrado y conectado para ver este vínculo] [Tienes que estar registrado y conectado para ver este vínculo]

Capturas



Trailer

Info
CALIDAD DE VIDEO: m1080p MPEG4 Video (H264) 1920x858
CALIDAD DE AUDIO 1: Castellano AC-3 2 canales 448 Kbps
SUBTITULOS: Sin subtitulos
TAMAÑO: 3.70 GiB
Mediainfo:
Format                      : Matroska
Format version              : Version 4 / Version 2
File size                   : 3.70 GiB
Duration                    : 1 h 46 min
Overall bit rate            : 4 968 kb/s
Movie name                  : No dormirás - [Tienes que estar registrado y conectado para ver este vínculo]
Encoded date                : UTC 2018-07-29 03:53:52
Writing application         : mkvmerge v23.0.0 ('The Bride Said No') 64-bit
Writing library             : libebml v1.3.6 + libmatroska v1.4.9


Video
ID                          : 1
Format                      : AVC
Format/Info                 : Advanced Video Codec
Format profile              : High@L4
Format settings             : CABAC / 5 Ref Frames
Format settings, CABAC      : Yes
Format settings, RefFrames  : 5 frames
Codec ID                    : V_MPEG4/ISO/AVC
Duration                    : 1 h 46 min
Bit rate                    : 4 525 kb/s
Width                       : 1 920 pixels
Height                      : 858 pixels
Display aspect ratio        : 2.25:1
Frame rate mode             : Constant
Frame rate                  : 24.000 FPS
Color space                 : YUV
Chroma subsampling          : 4:2:0
Bit depth                   : 8 bits
Scan type                   : Progressive
Bits/(Pixel*Frame)          : 0.114
Stream size                 : 3.36 GiB (91%)
Title                       : AVC
Language                    : Spanish
Default                     : Yes
Forced                      : Yes
Color range                 : Limited
Color primaries             : BT.709
Transfer characteristics    : BT.709
Matrix coefficients         : BT.709


Audio
ID                          : 2
Format                      : AC-3
Format/Info                 : Audio Coding 3
Format settings, Endianness : Big
Codec ID                    : A_AC3
Duration                    : 1 h 46 min
Bit rate mode               : Constant
Bit rate                    : 448 kb/s
Channel(s)                  : 2 channels
Channel positions           : Front: L R
Sampling rate               : 48.0 kHz
Frame rate                  : 31.250 FPS (1536 SPF)
Bit depth                   : 16 bits
Compression mode            : Lossy
Stream size                 : 341 MiB (9%)
Title                       : AC-3
Language                    : Spanish
Service kind                : Complete Main
Default                     : Yes
Forced                      : Yes


Menu
00:00:00.000                : en:Глава 1
00:06:18.958                : en:Глава 2
00:12:00.249                : en:Глава 3
00:18:27.540                : en:Глава 4
00:24:44.873                : en:Глава 5
00:29:41.706                : en:Глава 6
00:37:48.831                : en:Глава 7
00:45:11.414                : en:Глава 8
00:51:59.622                : en:Глава 9
00:58:09.205                : en:Глава 10
01:05:37.205                : en:Глава 11
01:14:03.621                : en:Глава 12
01:20:48.496                : en:Глава 13
01:27:02.037                : en:Глава 14
01:33:51.078                : en:Глава 15


Enlaces Descarga
Tusfiles - Uptobox - Userscloud - 1fichier - Depositfiles - Hitfile - k-bagi - Turbobit - Wayupload
En algunos servidores (Tusfiles, Filebebo, Sendit, Userscloud...) es necesario estar registrado para descargar archivos grandes y a mayor velocidad.


Enlaces Online
Rapidvideo - ok.ru - Openload - Vidoza - Streamango - Vidlox - Userscloud - Vidcloud - Uptostream
Para ver online en Sendit, Userscloud y Filebebo necesitas estar registrado en su página y usar el navegador Google Chrome


NOTA: Por favor, si los enlaces están caidos avisa en un comentario para poder resubirlos. Gracias


Última edición por Admin el Sáb 6 Oct 2018 - 3:44, editado 1 vez

______________________________________________________
[Tienes que estar registrado y conectado para ver este vínculo]
Saludos  Smile
HolyFucklesItsKnuckles
Nuevo Flipax
Nuevo Flipax
Sexo : Masculino
Mensajes : 1
Puntos : 1
Reputación : 0
Fecha de inscripción : 01/09/2018

Terror Re: No dormirás (2018) [Ver Online] [Descargar] [HD 1080p] [Español] [Terror]

el Sáb 1 Sep 2018 - 7:20
Lamentablemente el torrent no tiene muchos seeds Sad
Volver arriba
Permisos de este foro:
No puedes responder a temas en este foro.