Comparte
Ir abajo
avatar
Admin
Administrador
Administrador
Sexo : Masculino
Mensajes : 1169
Puntos : 3971
Reputación : 976
Fecha de inscripción : 02/04/2012
Localización : España

Thriller Juego de ladrones. El atraco perfecto (2018) [1080p] [Español-Inglés] [Torrent] [Thriller]

el Dom 29 Jul 2018 - 17:49
Reputación del mensaje :100% (1 voto)

Ficha Técnica
SINOPSIS: Todos los días, el banco de la Reserva Federal de Los Ángeles saca de la circulación 120 millones de dólares en efectivo. Un grupo de experimentados ladrones planea su gran atraco final: robar esos 120 millones, pero el departamento del Sheriff de Los Ángeles, la brigada más temida de la ciudad liderada por 'El gran Nick' (Gerard Butler), no está dispuesto a ponérselo fácil.
TÍTULO ORIGINAL: Den of Thieves
AÑO: [Tienes que estar registrado y conectado para ver este vínculo]
DURACIÓN: 140 min.
PAÍS:  Estados Unidos
DIRECCIÓN: Christian Gudegast
REPARTO: Gerard Butler, Pablo Schreiber, O'Shea Jackson Jr., Curtis '50 Cent' Jackson, Sonya Balmores, Maurice Compte, Evan Jones, Brian Van Holt, Jordan Bridges, Eric Braeden, Jermaine Rivers, Meadow Williams, Michael Papajohn, Lewis Tan, Oleg Taktarov, Mo McRae, Kaiwi Lyman, Patti Schellhaas, Michael Bisping
GÉNERO: [Tienes que estar registrado y conectado para ver este vínculo] [Tienes que estar registrado y conectado para ver este vínculo] [Tienes que estar registrado y conectado para ver este vínculo] | [Tienes que estar registrado y conectado para ver este vínculo] & [Tienes que estar registrado y conectado para ver este vínculo] [Tienes que estar registrado y conectado para ver este vínculo] [Tienes que estar registrado y conectado para ver este vínculo]

Capturas



Trailer

Info
CALIDAD DE VIDEO: m1080p MPEG4 Video (H264) 1920x858
CALIDAD DE AUDIO 1: Castellano AC-3 2 canales 448 Kbps
SUBTITULOS: Sin subtitulos
TAMAÑO: 5.99 GiB
Mediainfo:
Format                      : Matroska
Format version              : Version 4 / Version 2
File size                   : 5.99 GiB
Duration                    : 2 h 20 min
Overall bit rate            : 6 101 kb/s
Movie name                  : Juego de ladrones. El atraco perfecto - [Tienes que estar registrado y conectado para ver este vínculo]
Encoded date                : UTC 2018-07-29 10:34:22
Writing application         : mkvmerge v23.0.0 ('The Bride Said No') 64-bit
Writing library             ]
Video
ID                          : 1
Format                      : AVC
Format/Info                 : Advanced Video Codec
Format profile              : High@L4.1
Format settings             : CABAC / 5 Ref Frames
Format settings, CABAC      : Yes
Format settings, RefFrames  : 5 frames
Codec ID                    : V_MPEG4/ISO/AVC
Duration                    : 2 h 20 min
Bit rate                    : 5 266 kb/s
Width                       : 1 920 pixels
Height                      : 800 pixels
Display aspect ratio        : 2.40:1
Frame rate mode             : Constant
Frame rate                  : 23.976 (24000/1001) FPS
Color space                 : YUV
Chroma subsampling          : 4:2:0
Bit depth                   : 8 bits
Scan type                   : Progressive
Bits/(Pixel*Frame)          : 0.143
Stream size                 : 5.17 GiB (86%)
Title                       : AVC
Writing library             : x264 core 155 r2901 7d0ff22
Encoding settings           : cabac=1 / ref=5 / deblock=1:-3:-3 / analyse=0x3:0x113 / me=umh / subme=11 / psy=1 / psy_rd=1.10:0.00 / mixed_ref=1 / me_range=48 / chroma_me=1 / trellis=2 / 8x8dct=1 / cqm=0 / deadzone=21,11 / fast_pskip=0 / chroma_qp_offset=-2 / threads=48 / lookahead_threads=4 / sliced_threads=0 / nr=0 / decimate=1 / interlaced=0 / bluray_compat=0 / constrained_intra=0 / bframes=8 / b_pyramid=2 / b_adapt=2 / b_bias=0 / direct=1 / weightb=1 / open_gop=0 / weightp=2 / keyint=240 / keyint_min=23 / scenecut=40 / intra_refresh=0 / rc_lookahead=80 / rc=crf / mbtree=1 / crf=21.0 / qcomp=0.65 / qpmin=0 / qpmax=69 / qpstep=4 / vbv_maxrate=62500 / vbv_bufsize=78125 / crf_max=0.0 / nal_hrd=none / filler=0 / ip_ratio=1.40 / aq=1:1.10
Language                    : Spanish
Default                     : Yes
Forced                      : No
Color range                 : Limited
Color primaries             : BT.709
Transfer characteristics    : BT.709
Matrix coefficients         : BT.709


Audio [Tienes que estar registrado y conectado para ver este vínculo]
ID                          : 2
Format                      : AC-3
Format/Info                 : Audio Coding 3
Format settings, Endianness : Big
Codec ID                    : A_AC3
Duration                    : 2 h 20 min
Bit rate mode               : Constant
Bit rate                    : 448 kb/s
Channel(s)                  : 6 channels
Channel positions           : Front: L C R, Side: L R, LFE
Sampling rate               : 48.0 kHz
Frame rate                  : 31.250 FPS (1536 SPF)
Bit depth                   : 16 bits
Compression mode            : Lossy
Stream size                 : 450 MiB (7%)
Title                       : AC-3
Language                    : Spanish
Service kind                : Complete Main
Default                     : Yes
Forced                      : Yes


Audio [Tienes que estar registrado y conectado para ver este vínculo]
ID                          : 3
Format                      : AC-3
Format/Info                 : Audio Coding 3
Format settings, Endianness : Big
Codec ID                    : A_AC3
Duration                    : 2 h 20 min
Bit rate mode               : Constant
Bit rate                    : 384 kb/s
Channel(s)                  : 6 channels
Channel positions           : Front: L C R, Side: L R, LFE
Sampling rate               : 48.0 kHz
Frame rate                  : 31.250 FPS (1536 SPF)
Bit depth                   : 16 bits
Compression mode            : Lossy
Stream size                 : 386 MiB (6%)
Title                       : AC-3
Language                    : English
Service kind                : Complete Main
Default                     : No
Forced                      : No


Text [Tienes que estar registrado y conectado para ver este vínculo]
ID                          : 4
Format                      : UTF-8
Codec ID                    : S_TEXT/UTF8
Codec ID/Info               : UTF-8 Plain Text
Duration                    : 2 h 15 min
Bit rate                    : 0 b/s
Count of elements           : 20
Stream size                 : 594 Bytes (0%)
Title                       : FORZADOS
Language                    : Spanish
Default                     : Yes
Forced                      : Yes


Text [Tienes que estar registrado y conectado para ver este vínculo]
ID                          : 5
Format                      : UTF-8
Codec ID                    : S_TEXT/UTF8
Codec ID/Info               : UTF-8 Plain Text
Duration                    : 2 h 15 min
Bit rate                    : 42 b/s
Count of elements           : 1355
Stream size                 : 41.6 KiB (0%)
Title                       : COMPLETOS
Language                    : Spanish
Default                     : No
Forced                      : No


Text [Tienes que estar registrado y conectado para ver este vínculo]
ID                          : 6
Format                      : UTF-8
Codec ID                    : S_TEXT/UTF8
Codec ID/Info               : UTF-8 Plain Text
Duration                    : 2 h 12 min
Bit rate                    : 49 b/s
Count of elements           : 1636
Stream size                 : 48.2 KiB (0%)
Title                       : COMPLETOS
Language                    : English
Default                     : No
Forced                      : No


Menu
00:00:00.000                : en:Chapter 1
00:09:38.870                : en:Chapter 2
00:15:57.832                : en:Chapter 3
00:21:50.518                : en:Chapter 4
00:32:44.880                : en:Chapter 5
00:38:40.109                : en:Chapter 6
00:44:47.018                : en:Chapter 7
00:52:24.391                : en:Chapter 8
00:58:31.216                : en:Chapter 9
01:03:40.650                : en:Chapter 10
01:09:18.738                : en:Chapter 11
01:16:50.564                : en:Chapter 12
01:21:33.597                : en:Chapter 13
01:27:29.953                : en:Chapter 14
01:32:18.992                : en:Chapter 15
01:42:01.615                : en:Chapter 16
01:50:09.811                : en:Chapter 17
01:56:38.992                : en:Chapter 18
02:06:07.810                : en:Chapter 19
02:13:54.401                : en:Chapter 20


Enlaces Descarga
Tusfiles - Uptobox - Userscloud - 1fichier - Depositfiles - k-bagi - Wayupload
En algunos servidores (Tusfiles, Filebebo, Sendit, Userscloud...) es necesario estar registrado para descargar archivos grandes y a mayor velocidad.


Enlaces Online
Rapidvideo - Openload - Streamango - Vidlox - Userscloud - Uptostream
Para ver online en Sendit, Userscloud y Filebebo necesitas estar registrado en su página y usar el navegador Google Chrome


Enlaces Torrent
Descargar Archivo .Torrent          -          [Tienes que estar registrado y conectado para ver este vínculo]


Reproductor
(Openload)



NOTA: Por favor, si los enlaces están caidos avisa en un comentario para poder resubirlos. Gracias

______________________________________________________
Saludos  Smile
Volver arriba
Permisos de este foro:
No puedes responder a temas en este foro.