Comparte
Ir abajo
avatar
Admin
Administrador
Administrador
Sexo : Masculino
Mensajes : 1169
Puntos : 3971
Reputación : 976
Fecha de inscripción : 02/04/2012
Localización : España

Comedia #SexPact (2018) [Ver Online] [Descargar] [HD 1080p] [Español-Inglés] [Comedia]

el Mar 31 Jul 2018 - 22:36
Reputación del mensaje :100% (1 voto)

Ficha Técnica
SINOPSIS: Tres padres tratan de impedir que sus hijas tengan relaciones sexuales en la noche del baile de graduación.
TÍTULO ORIGINAL: Blockers
AÑO: [Tienes que estar registrado y conectado para ver este vínculo]
DURACIÓN: 102 min.
PAÍS: Estados Unidos
DIRECCIÓN: Kay Cannon
REPARTO: Leslie Mann, John Cena, Ike Barinholtz, Kathryn Newton, Graham Phillips, Jake Picking, Baz Ma, Geraldine Viswanathan, Rhoda Griffis, Jimmy Bellinger, Ramona Young, Miles Robbins, Jill Jane Clements, Michael David Yuhl, Gideon Adlon, Sarayu Blue
GÉNERO: [Tienes que estar registrado y conectado para ver este vínculo] | [Tienes que estar registrado y conectado para ver este vínculo]

Capturas



Trailer

Info
CALIDAD DE VIDEO: m1080p MPEG4 Video (H264) 1920x804
CALIDAD DE AUDIO 1: Castellano AC-3 5.1 640 Kbps
CALIDAD DE AUDIO 1: Inglés AC-3 5.1 448 Kbps
SUBTITULOS: Incluye completos en español e inglés y forzados en español
TAMAÑO: 4.71 GiB
Mediainfo:
Format                      : Matroska
Format version              : Version 4 / Version 2
File size                   : 4.71 GiB
Duration                    : 1 h 41 min
Overall bit rate            : 6 618 kb/s
Movie name                  : [Tienes que estar registrado y conectado para ver este vínculo] - [Tienes que estar registrado y conectado para ver este vínculo]
Encoded date                : UTC 2018-07-30 17:01:50
Writing application         : mkvmerge v23.0.0 ('The Bride Said No') 64-bit
Writing library             : libebml v1.3.6 + libmatroska v1.4.9


Video
ID                          : 1
Format                      : AVC
Format/Info                 : Advanced Video Codec
Format profile              : High@L4.1
Format settings             : CABAC / 5 Ref Frames
Format settings, CABAC      : Yes
Format settings, RefFrames  : 5 frames
Codec ID                    : V_MPEG4/ISO/AVC
Duration                    : 1 h 41 min
Bit rate                    : 5 527 kb/s
Width                       : 1 920 pixels
Height                      : 804 pixels
Display aspect ratio        : 2.40:1
Frame rate mode             : Constant
Frame rate                  : 23.976 (24000/1001) FPS
Color space                 : YUV
Chroma subsampling          : 4:2:0
Bit depth                   : 8 bits
Scan type                   : Progressive
Bits/(Pixel*Frame)          : 0.149
Stream size                 : 3.94 GiB (84%)
Title                       : AVC
Writing library             : x264 core 152 r2851 ba24899
Encoding settings           : cabac=1 / ref=5 / deblock=1:-3:-3 / analyse=0x3:0x113 / me=umh / subme=11 / psy=1 / psy_rd=1.00:0.00 / mixed_ref=1 / me_range=48 / chroma_me=1 / trellis=2 / 8x8dct=1 / cqm=0 / deadzone=21,11 / fast_pskip=0 / chroma_qp_offset=-2 / threads=25 / lookahead_threads=2 / sliced_threads=0 / nr=0 / decimate=1 / interlaced=0 / bluray_compat=0 / constrained_intra=0 / bframes=5 / b_pyramid=2 / b_adapt=2 / b_bias=0 / direct=1 / weightb=1 / open_gop=0 / weightp=2 / keyint=240 / keyint_min=23 / scenecut=40 / intra_refresh=0 / rc_lookahead=45 / rc=crf / mbtree=1 / crf=20.2 / qcomp=0.70 / qpmin=0 / qpmax=69 / qpstep=4 / vbv_maxrate=62500 / vbv_bufsize=78125 / crf_max=0.0 / nal_hrd=none / filler=0 / ip_ratio=1.40 / aq=1:1.10
Language                    : Spanish
Default                     : Yes
Forced                      : No


Audio [Tienes que estar registrado y conectado para ver este vínculo]
ID                          : 2
Format                      : AC-3
Format/Info                 : Audio Coding 3
Format settings, Endianness : Big
Codec ID                    : A_AC3
Duration                    : 1 h 41 min
Bit rate mode               : Constant
Bit rate                    : 640 kb/s
Channel(s)                  : 6 channels
Channel positions           : Front: L C R, Side: L R, LFE
Sampling rate               : 48.0 kHz
Frame rate                  : 31.250 FPS (1536 SPF)
Bit depth                   : 16 bits
Compression mode            : Lossy
Stream size                 : 467 MiB (10%)
Title                       : AC-3
Language                    : Spanish
Service kind                : Complete Main
Default                     : Yes
Forced                      : No


Audio [Tienes que estar registrado y conectado para ver este vínculo]
ID                          : 3
Format                      : AC-3
Format/Info                 : Audio Coding 3
Format settings, Endianness : Big
Codec ID                    : A_AC3
Duration                    : 1 h 41 min
Bit rate mode               : Constant
Bit rate                    : 448 kb/s
Channel(s)                  : 6 channels
Channel positions           : Front: L C R, Side: L R, LFE
Sampling rate               : 48.0 kHz
Frame rate                  : 31.250 FPS (1536 SPF)
Bit depth                   : 16 bits
Compression mode            : Lossy
Stream size                 : 327 MiB (7%)
Title                       : AC-3
Language                    : English
Service kind                : Complete Main
Default                     : No
Forced                      : No


Text [Tienes que estar registrado y conectado para ver este vínculo]
ID                          : 4
Format                      : UTF-8
Codec ID                    : S_TEXT/UTF8
Codec ID/Info               : UTF-8 Plain Text
Duration                    : 1 h 29 min
Bit rate                    : 0 b/s
Count of elements           : 18
Stream size                 : 514 Bytes (0%)
Title                       : FORZADOS
Language                    : Spanish
Default                     : Yes
Forced                      : No


Text [Tienes que estar registrado y conectado para ver este vínculo]
ID                          : 5
Format                      : UTF-8
Codec ID                    : S_TEXT/UTF8
Codec ID/Info               : UTF-8 Plain Text
Duration                    : 1 h 34 min
Bit rate                    : 87 b/s
Count of elements           : 2044
Stream size                 : 60.4 KiB (0%)
Title                       : COMPLETOS
Language                    : Spanish
Default                     : No
Forced                      : No


Text [Tienes que estar registrado y conectado para ver este vínculo]
ID                          : 6
Format                      : UTF-8
Codec ID                    : S_TEXT/UTF8
Codec ID/Info               : UTF-8 Plain Text
Duration                    : 1 h 34 min
Bit rate                    : 99 b/s
Count of elements           : 2296
Stream size                 : 68.7 KiB (0%)
Title                       : COMPLETOS
Language                    : English
Default                     : No
Forced                      : No


Menu
00:00:00.000                : en:Chapter 1
00:02:50.087                : en:Chapter 2
00:10:02.143                : en:Chapter 3
00:14:50.139                : en:Chapter 4
00:22:11.956                : en:Chapter 5
00:26:09.109                : en:Chapter 6
00:32:02.963                : en:Chapter 7
00:35:18.450                : en:Chapter 8
00:40:06.529                : en:Chapter 9
00:44:33.546                : en:Chapter 10
00:49:58.245                : en:Chapter 11
00:55:14.770                : en:Chapter 12
00:59:26.521                : en:Chapter 13
01:05:34.472                : en:Chapter 14
01:10:20.633                : en:Chapter 15
01:15:47.001                : en:Chapter 16
01:22:48.213                : en:Chapter 17
01:26:38.819                : en:Chapter 18
01:31:15.970                : en:Chapter 19
01:34:08.560                : en:Chapter 20


Enlaces Descarga
Tusfiles - Uptobox - 1fichier - Depositfiles - k-bagi - Wayupload
En algunos servidores (Tusfiles, Filebebo, Sendit, Userscloud...) es necesario estar registrado para descargar archivos grandes y a mayor velocidad.


Enlaces Online
Rapidvideo - ok.ru - Openload - Vidoza - Streamango - Vidlox - Vidcloud - Uptostream - Userscloud
Para ver online en Sendit, Userscloud y Filebebo necesitas estar registrado en su página y usar el navegador Google Chrome


Enlaces Torrent
Descargar Archivo .Torrent         -         [Tienes que estar registrado y conectado para ver este vínculo]


Reproductor
(ok.ru)



NOTA: Por favor, si los enlaces están caidos avisa en un comentario para poder resubirlos. Gracias

______________________________________________________
Saludos  Smile
Volver arriba
Permisos de este foro:
No puedes responder a temas en este foro.