Comparte
Ir abajo
avatar
Admin
Administrador
Administrador
Sexo : Masculino
Mensajes : 1514
Puntos : 4771
Reputación : 1103
Fecha de inscripción : 02/04/2012
Localización : España

Drama Inmersión (2017) [Ver Online] [Descargar] [Torrent] [HD 1080p] [Spa-Eng] [Drama]

el Sáb 4 Ago 2018 - 16:19
Reputación del mensaje :100% (1 voto)

Ficha Técnica
SINOPSIS: James More (James McAvoy) es un ingeniero hidráulico que ha sido tomado como rehén en Somalia por terroristas yihadistas, que sospechan que es un espía británico. Danielle ‘Danny’ Flinders (Alicia Vikander) es una biomatemática que trabaja en un proyecto de inmersión en las aguas más profundas de los océanos para demostrar su teoría sobre el origen de la vida en el planeta. Un año antes, James y Danny se conocieron en un hotel de la costa atlántica francesa y se enamoraron. Ahora, separados, Danny inicia una inmersión al fondo del océano sin saber si James sigue vivo.
TÍTULO ORIGINAL: Submergence
AÑO: [Tienes que estar registrado y conectado para ver este vínculo]
DURACIÓN: 111 min.
PAÍS:  Alemania
DIRECCIÓN: Wim Wenders
REPARTO: James McAvoy, Alicia Vikander, Alexander Siddig, Celyn Jones, Reda Kateb, Mohamed Hakeemshady, Clémentine Baert, Harvey Friedman, Matthew Gallagher, Godehard Giese, Andrea Guasch, Alex Hafner, Jess Liaudin, Adam Quintero, Jannik Schümann
GÉNERO: [Tienes que estar registrado y conectado para ver este vínculo] [Tienes que estar registrado y conectado para ver este vínculo] | [Tienes que estar registrado y conectado para ver este vínculo] [Tienes que estar registrado y conectado para ver este vínculo]

Capturas



Trailer

Info
CALIDAD DE VIDEO: m1080p MPEG4 Video (H264) 1920x1036
CALIDAD DE AUDIO 1: Castellano AC-3 5.1 448 Kbps
CALIDAD DE AUDIO 1: Inglés AC-3 5.1 448 Kbps
SUBTITULOS: Incluye completos en español e inglés y forzados en español
TAMAÑO: 4.78 GiB
Mediainfo:
Format : Matroska
Format version : Version 4 / Version 2
File size : 4.78 GiB
Duration : 1 h 51 min
Overall bit rate : 6 133 kb/s
Movie name : Inmersión - [Tienes que estar registrado y conectado para ver este vínculo]
Encoded date : UTC 2018-08-03 22:37:01
Writing application : mkvmerge v23.0.0 ('The Bride Said No') 64-bit
Writing library : libebml v1.3.6 + libmatroska v1.4.9


Video
ID : 1
Format : AVC
Format/Info : Advanced Video Codec
Format profile : High@L4.1
Format settings : CABAC / 4 Ref Frames
Format settings, CABAC : Yes
Format settings, RefFrames : 4 frames
Codec ID : V_MPEG4/ISO/AVC
Duration : 1 h 51 min
Bit rate : 5 234 kb/s
Width : 1 920 pixels
Height : 1 036 pixels
Display aspect ratio : 1.85:1
Frame rate mode : Constant
Frame rate : 24.000 FPS
Color space : YUV
Chroma subsampling : 4:2:0
Bit depth : 8 bits
Scan type : Progressive
Bits/(Pixel*Frame) : 0.110
Stream size : 4.08 GiB (85%)
Title : AVC
Writing library : x264 core 152 r2851 ba24899
Encoding settings : cabac=1 / ref=4 / deblock=1:-3:-3 / analyse=0x3:0x113 / me=umh / subme=11 / psy=1 / psy_rd=1.00:0.00 / mixed_ref=1 / me_range=48 / chroma_me=1 / trellis=2 / 8x8dct=1 / cqm=0 / deadzone=21,11 / fast_pskip=0 / chroma_qp_offset=-2 / threads=16 / lookahead_threads=2 / sliced_threads=0 / nr=0 / decimate=1 / interlaced=0 / bluray_compat=0 / constrained_intra=0 / bframes=5 / b_pyramid=2 / b_adapt=2 / b_bias=0 / direct=1 / weightb=1 / open_gop=0 / weightp=2 / keyint=240 / keyint_min=24 / scenecut=40 / intra_refresh=0 / rc_lookahead=45 / rc=crf / mbtree=1 / crf=23.6 / qcomp=0.70 / qpmin=0 / qpmax=69 / qpstep=4 / vbv_maxrate=62500 / vbv_bufsize=78125 / crf_max=0.0 / nal_hrd=none / filler=0 / ip_ratio=1.40 / aq=1:1.10
Language : Spanish
Default : Yes
Forced : No


Audio [Tienes que estar registrado y conectado para ver este vínculo]
ID : 2
Format : AC-3
Format/Info : Audio Coding 3
Format settings, Endianness : Big
Codec ID : A_AC3
Duration : 1 h 51 min
Bit rate mode : Constant
Bit rate : 448 kb/s
Channel(s) : 6 channels
Channel positions : Front: L C R, Side: L R, LFE
Sampling rate : 48.0 kHz
Frame rate : 31.250 FPS (1536 SPF)
Bit depth : 16 bits
Compression mode : Lossy
Stream size : 358 MiB (7%)
Title : AC-3
Language : Spanish
Service kind : Complete Main
Default : Yes
Forced : No


Audio [Tienes que estar registrado y conectado para ver este vínculo]
ID : 3
Format : AC-3
Format/Info : Audio Coding 3
Format settings, Endianness : Big
Codec ID : A_AC3
Duration : 1 h 51 min
Bit rate mode : Constant
Bit rate : 448 kb/s
Channel(s) : 6 channels
Channel positions : Front: L C R, Side: L R, LFE
Sampling rate : 48.0 kHz
Frame rate : 31.250 FPS (1536 SPF)
Bit depth : 16 bits
Compression mode : Lossy
Stream size : 358 MiB (7%)
Title : AC-3
Language : English
Service kind : Complete Main
Default : No
Forced : No


Text [Tienes que estar registrado y conectado para ver este vínculo]
ID : 4
Format : UTF-8
Codec ID : S_TEXT/UTF8
Codec ID/Info : UTF-8 Plain Text
Duration : 1 h 40 min
Bit rate : 2 b/s
Count of elements : 48
Stream size : 1.96 KiB (0%)
Title : FORZADOS
Language : Spanish
Default : Yes
Forced : No


Text [Tienes que estar registrado y conectado para ver este vínculo]
ID : 5
Format : UTF-8
Codec ID : S_TEXT/UTF8
Codec ID/Info : UTF-8 Plain Text
Duration : 1 h 42 min
Bit rate : 45 b/s
Count of elements : 1001
Stream size : 34.0 KiB (0%)
Title : COMPLETOS
Language : Spanish
Default : No
Forced : No


Text [Tienes que estar registrado y conectado para ver este vínculo]
ID : 6
Format : UTF-8
Codec ID : S_TEXT/UTF8
Codec ID/Info : UTF-8 Plain Text
Duration : 1 h 45 min
Bit rate : 39 b/s
Count of elements : 963
Stream size : 30.2 KiB (0%)
Title : COMPLETOS
Language : English
Default : No
Forced : No


Menu
00:00:00.000 : en:00:00:00.000
00:06:30.083 : en:00:06:30.083
00:13:56.792 : en:00:13:56.792
00:19:15.208 : en:00:19:15.208
00:26:32.292 : en:00:26:32.292
00:34:03.208 : en:00:34:03.208
00:43:14.750 : en:00:43:14.750
00:48:35.167 : en:00:48:35.167
00:54:43.625 : en:00:54:43.625
01:01:40.000 : en:01:01:40.000
01:08:25.417 : en:01:08:25.417
01:15:05.375 : en:01:15:05.375
01:21:54.542 : en:01:21:54.542
01:29:34.292 : en:01:29:34.292
01:37:09.625 : en:01:37:09.625
01:45:57.208 : en:01:45:57.208


Enlaces Descarga
Tusfiles - Uptobox - Userscloud - 1fichier - Depositfiles - Wayupload
En algunos servidores (Tusfiles, Filebebo, Sendit, Userscloud...) es necesario estar registrado para descargar archivos grandes y a mayor velocidad.


Enlaces Online
Rapidvideo - ok.ru - Openload - Vidoza - Streamango - Vidlox - Vidcloud - Userscloud - Uptostream
Para ver online en Sendit, Userscloud y Filebebo necesitas estar registrado en su página y usar el navegador Google Chrome


Enlaces Torrent
Descargar Archivo .Torrent         -         [Tienes que estar registrado y conectado para ver este vínculo]


Reproductor
(ok.ru)



NOTA: Por favor, si los enlaces están caidos avisa en un comentario para poder resubirlos. Gracias

______________________________________________________
Saludos  Smile
Volver arriba
Permisos de este foro:
No puedes responder a temas en este foro.