Comparte
Ir abajo
avatar
Admin
Administrador
Administrador
Sexo : Masculino
Mensajes : 1169
Puntos : 3971
Reputación : 976
Fecha de inscripción : 02/04/2012
Localización : España

Comedia La muerte de Stalin (2017) [Ver + Descargar] [Torrent] [HD 1080p] [Spa-Eng] [Comedia]

el Dom 5 Ago 2018 - 22:15
Reputación del mensaje :100% (1 voto)

Ficha Técnica
SINOPSIS: La noche del 2 de marzo de 1953 murió un hombre. Ese hombre es Josef Stalin, dictador, tirano, carnicero y Secretario General de la URSS. Y si juegas tus cartas bien, el puesto ahora puede ser tuyo. Una sátira sobre los días previos al funeral del padre de la nación. Dos jornadas de duras peleas por el poder absoluto a través de manipulaciones, lujurias y traiciones.
TÍTULO ORIGINAL: The Death of Stalin  
AÑO: [Tienes que estar registrado y conectado para ver este vínculo]
DURACIÓN: 106 min.
PAÍS:  Reino Unido
DIRECCIÓN: Armando Iannucci
REPARTO: Steve Buscemi, Simon Russell Beale, Jeffrey Tambor, Michael Palin, Andrea Riseborough, Dermot Crowley, Jason Isaacs, Rupert Friend, Olga Kurylenko, Paddy Considine, Adrian McLoughlin, Paul Whitehouse, Paul Chahidi, Tom Brooke, Justin Edwards, Richard Brake, Jonathan Aris, Roger Ashton-Griffiths
GÉNERO: [Tienes que estar registrado y conectado para ver este vínculo] | [Tienes que estar registrado y conectado para ver este vínculo] [Tienes que estar registrado y conectado para ver este vínculo] [Tienes que estar registrado y conectado para ver este vínculo]

Capturas



Trailer

Info
CALIDAD DE VIDEO: m1080p MPEG4 Video (H264) 1920x1036
CALIDAD DE AUDIO 1: Castellano AC-3 5.1 448 Kbps
CALIDAD DE AUDIO 1: Inglés AC-3 5.1 448 Kbps
SUBTITULOS: Incluye completos en español e inglés y forzados en español
TAMAÑO: 4.55 GiB
Mediainfo:
Format                      : Matroska
Format version              : Version 4 / Version 2
File size                   : 4.55 GiB
Duration                    : 1 h 46 min
Overall bit rate            : 5 925 kb/s
Movie name                  : La muerte de Stalin - [Tienes que estar registrado y conectado para ver este vínculo]
Encoded date                : UTC 2018-08-05 14:16:00
Writing application         : mkvmerge v23.0.0 ('The Bride Said No') 64-bit
Writing library             : libebml v1.3.6 + libmatroska v1.4.9


Video
ID                          : 1
Format                      : AVC
Format/Info                 : Advanced Video Codec
Format profile              : High@L4.1
Format settings             : CABAC / 4 Ref Frames
Format settings, CABAC      : Yes
Format settings, RefFrames  : 4 frames
Codec ID                    : V_MPEG4/ISO/AVC
Duration                    : 1 h 46 min
Bit rate                    : 5 027 kb/s
Width                       : 1 920 pixels
Height                      : 1 036 pixels
Display aspect ratio        : 1.85:1
Frame rate mode             : Constant
Frame rate                  : 24.000 FPS
Color space                 : YUV
Chroma subsampling          : 4:2:0
Bit depth                   : 8 bits
Scan type                   : Progressive
Bits/(Pixel*Frame)          : 0.105
Stream size                 : 3.74 GiB (85%)
Title                       : AVC
Writing library             : x264 core 155 r2901 7d0ff22
Encoding settings           : cabac=1 / ref=4 / deblock=1:-3:-3 / analyse=0x3:0x113 / me=umh / subme=11 / psy=1 / psy_rd=1.10:0.00 / mixed_ref=1 / me_range=48 / chroma_me=1 / trellis=2 / 8x8dct=1 / cqm=0 / deadzone=21,11 / fast_pskip=0 / chroma_qp_offset=-2 / threads=32 / lookahead_threads=8 / sliced_threads=0 / nr=0 / decimate=1 / interlaced=0 / bluray_compat=0 / constrained_intra=0 / bframes=10 / b_pyramid=2 / b_adapt=2 / b_bias=0 / direct=1 / weightb=1 / open_gop=0 / weightp=2 / keyint=240 / keyint_min=24 / scenecut=40 / intra_refresh=0 / rc_lookahead=80 / rc=crf / mbtree=1 / crf=20.9 / qcomp=0.65 / qpmin=0 / qpmax=69 / qpstep=4 / vbv_maxrate=62500 / vbv_bufsize=78125 / crf_max=0.0 / nal_hrd=none / filler=0 / ip_ratio=1.40 / aq=1:1.10
Language                    : Spanish
Default                     : Yes
Forced                      : Yes
Color range                 : Limited
Color primaries             : BT.709
Transfer characteristics    : BT.709
Matrix coefficients         : BT.709


Audio [Tienes que estar registrado y conectado para ver este vínculo]
ID                          : 2
Format                      : AC-3
Format/Info                 : Audio Coding 3
Format settings, Endianness : Big
Codec ID                    : A_AC3
Duration                    : 1 h 46 min
Bit rate mode               : Constant
Bit rate                    : 448 kb/s
Channel(s)                  : 6 channels
Channel positions           : Front: L C R, Side: L R, LFE
Sampling rate               : 48.0 kHz
Frame rate                  : 31.250 FPS (1536 SPF)
Bit depth                   : 16 bits
Compression mode            : Lossy
Stream size                 : 341 MiB (8%)
Title                       : AC-3
Language                    : Spanish
Service kind                : Complete Main
Default                     : Yes
Forced                      : Yes


Audio [Tienes que estar registrado y conectado para ver este vínculo]
ID                          : 3
Format                      : AC-3
Format/Info                 : Audio Coding 3
Format settings, Endianness : Big
Codec ID                    : A_AC3
Duration                    : 1 h 46 min
Bit rate mode               : Constant
Bit rate                    : 448 kb/s
Channel(s)                  : 6 channels
Channel positions           : Front: L C R, Side: L R, LFE
Sampling rate               : 48.0 kHz
Frame rate                  : 31.250 FPS (1536 SPF)
Bit depth                   : 16 bits
Compression mode            : Lossy
Stream size                 : 342 MiB (8%)
Title                       : AC-3
Language                    : English
Service kind                : Complete Main
Default                     : No
Forced                      : No


Text [Tienes que estar registrado y conectado para ver este vínculo]
ID                          : 4
Format                      : UTF-8
Codec ID                    : S_TEXT/UTF8
Codec ID/Info               : UTF-8 Plain Text
Duration                    : 1 h 38 min
Bit rate                    : 0 b/s
Count of elements           : 7
Stream size                 : 522 Bytes (0%)
Title                       : FORZADOS
Language                    : Spanish
Default                     : Yes
Forced                      : Yes


Text [Tienes que estar registrado y conectado para ver este vínculo]
ID                          : 5
Format                      : UTF-8
Codec ID                    : S_TEXT/UTF8
Codec ID/Info               : UTF-8 Plain Text
Duration                    : 1 h 36 min
Bit rate                    : 82 b/s
Count of elements           : 1907
Stream size                 : 58.5 KiB (0%)
Title                       : COMPLETOS
Language                    : Spanish
Default                     : No
Forced                      : No


Text [Tienes que estar registrado y conectado para ver este vínculo]
ID                          : 6
Format                      : UTF-8
Codec ID                    : S_TEXT/UTF8
Codec ID/Info               : UTF-8 Plain Text
Duration                    : 1 h 36 min
Bit rate                    : 85 b/s
Count of elements           : 1706
Stream size                 : 60.6 KiB (0%)
Title                       : COMPLATOS
Language                    : English
Default                     : No
Forced                      : No


Menu
00:00:00.000                : en:Chapter 1
00:06:38.875                : en:Chapter 2
00:13:02.583                : en:Chapter 3
00:19:53.125                : en:Chapter 4
00:29:06.125                : en:Chapter 5
00:33:58.250                : en:Chapter 6
00:40:22.417                : en:Chapter 7
00:45:28.000                : en:Chapter 8
00:50:35.000                : en:Chapter 9
00:58:40.750                : en:Chapter 10
01:03:23.667                : en:Chapter 11
01:12:31.750                : en:Chapter 12
01:17:42.917                : en:Chapter 13
01:24:49.000                : en:Chapter 14
01:33:33.708                : en:Chapter 15
01:39:25.583                : en:Chapter 16


Enlaces Descarga
Tusfiles - Uptobox - Userscloud - 1fichier - Depositfiles - Rapidgator - Wayupload
En algunos servidores (Tusfiles, Filebebo, Sendit, Userscloud...) es necesario estar registrado para descargar archivos grandes y a mayor velocidad.


Enlaces Online
Rapidvideo - Openload - Vidoza - Streamango - Vidlox - Vidcloud - Userscloud - Uptostream
Para ver online en Sendit, Userscloud y Filebebo necesitas estar registrado en su página y usar el navegador Google Chrome


Enlaces Torrent
Descargar Archivo .Torrent         -         [Tienes que estar registrado y conectado para ver este vínculo]


Reproductor
(Vidoza)



NOTA: Por favor, si los enlaces están caidos avisa en un comentario para poder resubirlos. Gracias

______________________________________________________
Saludos  Smile
Volver arriba
Permisos de este foro:
No puedes responder a temas en este foro.