Comparte
Ir abajo
avatar
Admin
Administrador
Administrador
Sexo : Masculino
Mensajes : 1514
Puntos : 4771
Reputación : 1103
Fecha de inscripción : 02/04/2012
Localización : España

Terror Tokyo Ghoul (2017) [Ver Online] [Descargar] [Torrent] [HD 1080p] [Spa-Jpn] [Terror]

el Sáb 11 Ago 2018 - 1:57
Reputación del mensaje :100% (1 voto)

Ficha Técnica
SINOPSIS: Cuenta la historia de Ken Kaneki, un estudiante universitario, quien después de ser atacado por un ghoul (seres sobrenaturales que sobreviven comiendo carne humana y se esconden en secreto entre los humanos) logra salvarse mediante un trasplante que lo convertirá en mitad-ghoul. Ahora Kaneki deberá adaptarse a su nueva vida ocultando su identidad entre las oscuras calles de Tokio.
TÍTULO ORIGINAL: Tokyo Ghoul
AÑO: [Tienes que estar registrado y conectado para ver este vínculo]
DURACIÓN: 119 min.
PAÍS:  Japón
DIRECCIÓN: Kentarô Hagiwara
REPARTO: Masataka Kubota, Fumika Shimizu, Yû Aoi, Nobuyuki Suzuki, Hiyori Sakurada, Kunio Murai, Yo Oizumi, Shunya Shiraishi, Shôko Aida, Shuntarô Yanagi, Kenta Hamano, Bandô Minosuke, Dankan, Nozomi Sasaki, Seika Furuhata
GÉNERO: [Tienes que estar registrado y conectado para ver este vínculo] [Tienes que estar registrado y conectado para ver este vínculo] [Tienes que estar registrado y conectado para ver este vínculo] | [Tienes que estar registrado y conectado para ver este vínculo] [Tienes que estar registrado y conectado para ver este vínculo]  

Capturas



Trailer

Info
CALIDAD DE VIDEO: m1080p MPEG4 Video (H264) 1920x804
CALIDAD DE AUDIO 1: Castellano AC-3 5.1 448 Kbps
CALIDAD DE AUDIO 1: Japonés AC-3 5.1 640 Kbps
SUBTITULOS: Incluye completos en español e inglés y forzados en español
TAMAÑO: 4.62 GiB
Mediainfo:
Format : Matroska
Format version : Version 4 / Version 2
File size : 4.62 GiB
Duration : 1 h 59 min
Overall bit rate : 5 518 kb/s
Movie name : Tokyo Ghoul - [Tienes que estar registrado y conectado para ver este vínculo]
Encoded date : UTC 2018-08-09 21:44:44
Writing application : mkvmerge v23.0.0 ('The Bride Said No') 64-bit
Writing library : libebml v1.3.6 + libmatroska v1.4.9


Video
ID : 1
Format : AVC
Format/Info : Advanced Video Codec
Format profile : High@L4.1
Format settings : CABAC / 2 Ref Frames
Format settings, CABAC : Yes
Format settings, RefFrames : 2 frames
Codec ID : V_MPEG4/ISO/AVC
Duration : 1 h 59 min
Bit rate : 4 428 kb/s
Width : 1 920 pixels
Height : 804 pixels
Display aspect ratio : 2.40:1
Frame rate mode : Constant
Frame rate : 23.976 (24000/1001) FPS
Color space : YUV
Chroma subsampling : 4:2:0
Bit depth : 8 bits
Scan type : Progressive
Bits/(Pixel*Frame) : 0.120
Stream size : 3.71 GiB (80%)
Title : AVC
Writing library : x264 core 142
Encoding settings : cabac=1 / ref=1 / deblock=1👎-1 / analyse=0x3:0 / me=hex / subme=5 / psy=0 / mixed_ref=0 / me_range=16 / chroma_me=1 / trellis=0 / 8x8dct=1 / cqm=0 / deadzone=21,11 / fast_pskip=0 / chroma_qp_offset=0 / threads=16 / lookahead_threads=4 / sliced_threads=0 / nr=0 / decimate=1 / interlaced=0 / bluray_compat=0 / constrained_intra=0 / bframes=2 / b_pyramid=0 / b_adapt=1 / b_bias=0 / direct=1 / weightb=0 / open_gop=0 / weightp=0 / keyint=24 / keyint_min=13 / scenecut=40 / intra_refresh=0 / rc=crf / mbtree=0 / crf=22.0 / qcomp=0.60 / qpmin=0 / qpmax=69 / qpstep=4 / ip_ratio=1.40 / pb_ratio=1.30 / aq=1:1.00
Language : Spanish
Default : Yes
Forced : Yes
Color range : Limited
Color primaries : BT.709
Transfer characteristics : BT.709
Matrix coefficients : BT.709


Audio [Tienes que estar registrado y conectado para ver este vínculo]
ID : 2
Format : AC-3
Format/Info : Audio Coding 3
Format settings, Endianness : Big
Codec ID : A_AC3
Duration : 1 h 59 min
Bit rate mode : Constant
Bit rate : 448 kb/s
Channel(s) : 6 channels
Channel positions : Front: L C R, Side: L R, LFE
Sampling rate : 48.0 kHz
Frame rate : 31.250 FPS (1536 SPF)
Bit depth : 16 bits
Compression mode : Lossy
Stream size : 384 MiB (8%)
Title : AC-3
Language : Spanish
Service kind : Complete Main
Default : Yes
Forced : Yes


Audio [Tienes que estar registrado y conectado para ver este vínculo]
ID : 3
Format : AC-3
Format/Info : Audio Coding 3
Format settings, Endianness : Big
Codec ID : A_AC3
Duration : 1 h 59 min
Bit rate mode : Constant
Bit rate : 640 kb/s
Channel(s) : 6 channels
Channel positions : Front: L C R, Side: L R, LFE
Sampling rate : 48.0 kHz
Frame rate : 31.250 FPS (1536 SPF)
Bit depth : 16 bits
Compression mode : Lossy
Stream size : 549 MiB (12%)
Title : AC-3
Language : Japanese
Service kind : Complete Main
Default : No
Forced : No


Text [Tienes que estar registrado y conectado para ver este vínculo]
ID : 4
Format : UTF-8
Codec ID : S_TEXT/UTF8
Codec ID/Info : UTF-8 Plain Text
Duration : 47 min 34 s
Bit rate : 0 b/s
Count of elements : 5
Stream size : 159 Bytes (0%)
Title : FORZADOS
Language : Spanish
Default : Yes
Forced : Yes


Text [Tienes que estar registrado y conectado para ver este vínculo]
ID : 5
Format : UTF-8
Codec ID : S_TEXT/UTF8
Codec ID/Info : UTF-8 Plain Text
Duration : 1 h 54 min
Bit rate : 25 b/s
Count of elements : 732
Stream size : 21.6 KiB (0%)
Title : COMPLETOS
Language : Spanish
Default : No
Forced : No


Text [Tienes que estar registrado y conectado para ver este vínculo]
ID : 6
Format : UTF-8
Codec ID : S_TEXT/UTF8
Codec ID/Info : UTF-8 Plain Text
Duration : 1 h 59 min
Bit rate : 21 b/s
Count of elements : 754
Stream size : 18.6 KiB (0%)
Title : COMPLETOS
Language : English
Default : No
Forced : No


Menu
00:00:00.000 : en:00:00:00.000
00:06:02.028 : en:00:06:02.028
00:11:57.133 : en:00:11:57.133
00:17:23.793 : en:00:17:23.793
00:27:22.224 : en:00:27:22.224
00:37:23.741 : en:00:37:23.741
00:48:49.760 : en:00:48:49.760
00:53:37.339 : en:00:53:37.339
00:59:03.790 : en:00:59:03.790
01:04:36.539 : en:01:04:36.539
01:07:56.197 : en:01:07:56.197
01:12:28.469 : en:01:12:28.469
01:19:42.945 : en:01:19:42.945
01:24:38.490 : en:01:24:38.490
01:30:14.492 : en:01:30:14.492
01:39:00.977 : en:01:39:00.977
01:45:45.172 : en:01:45:45.172
01:54:19.352 : en:01:54:19.352


Enlaces Descarga
Tusfiles - Uptobox - Userscloud - 1fichier - Depositfiles - Filerio - k-bagi - Rapidgator - Wayupload
En algunos servidores (Tusfiles, Filebebo, Sendit, Userscloud...) es necesario estar registrado para descargar archivos grandes y a mayor velocidad.


Enlaces Online
Rapidvideo - Openload - Vidoza - Streamango - Streamcherry - Vidlox - Vidcloud - Userscloud - Uptostream
Para ver online en Sendit, Userscloud y Filebebo necesitas estar registrado en su página y usar el navegador Google Chrome


Enlaces Torrent
Descargar Archivo .Torrent         -         [Tienes que estar registrado y conectado para ver este vínculo]


Reproductor
(ok.ru)



NOTA: Por favor, si los enlaces están caidos avisa en un comentario para poder resubirlos. Gracias

______________________________________________________
Saludos  Smile
Volver arriba
Permisos de este foro:
No puedes responder a temas en este foro.