Comparte
Ir abajo
avatar
Admin
Administrador
Administrador
Sexo : Masculino
Mensajes : 1897
Puntos : 5823
Reputación : 1224
Fecha de inscripción : 02/04/2012
Localización : España

Drama Alma Mater (2017) [Ver Online] [Descargar] [HD 1080p] [Spa-Ara] [Drama]

el Sáb 15 Sep 2018 - 23:06

Ficha Técnica
SINOPSIS: Oum Yazan, madre de tres hijos, atrapada dentro de su casa en una ciudad sitiada en Oriente Medio, ha convertido su apartamento en un puerto seguro para su familia y vecinos, tratando de protegerlos de la guerra. Cuando las bombas amenazan con destruir el edificio, los francotiradores convierten los patios en zonas mortales, y los ladrones entran a reclamar sus terribles recompensas, mantener el equilibrio de la rutina dentro de las paredes se convierte en una cuestión de vida o muerte.
AÑO: [Tienes que estar registrado y conectado para ver este vínculo]
DURACIÓN: 87 min.
PAÍS:  Bélgica
DIRECCIÓN: Philippe Van Leeuw
REPARTO: Hiam Abbass, Diamand Bou Abboud, Juliette Navis, Mohsen Abbas
GÉNERO: [Tienes que estar registrado y conectado para ver este vínculo] | [Tienes que estar registrado y conectado para ver este vínculo]

Capturas



Trailer

Info
CALIDAD DE VIDEO: m1080p MPEG4 Video (H264) 1916x1080
CALIDAD DE AUDIO 1: Castellano AC-3 2 canales 448 Kbps
CALIDAD DE AUDIO 2: Arabe AC-3 5.1 448 Kbps
SUBTITULOS: Incluye completos en español e inglés y forzados en español
TAMAÑO: 3.45 GiB
Mediainfo:
Format : Matroska
Format version : Version 4 / Version 2
File size : 3.45 GiB
Duration : 1 h 26 min
Overall bit rate : 5 716 kb/s
Movie name : Alma Mater - [Tienes que estar registrado y conectado para ver este vínculo]
Encoded date : UTC 2018-09-15 13:59:12
Writing application : mkvmerge v25.0.0 ('Prog Noir') 64-bit
Writing library : libebml v1.3.6 + libmatroska v1.4.9


Video
ID : 1
Format : AVC
Format/Info : Advanced Video Codec
Format profile : High@L4.1
Format settings : CABAC / 2 Ref Frames
Format settings, CABAC : Yes
Format settings, ReFrames : 2 frames
Codec ID : V_MPEG4/ISO/AVC
Duration : 1 h 26 min
Bit rate : 4 821 kb/s
Width : 1 916 pixels
Height : 1 080 pixels
Display aspect ratio : 16:9
Frame rate mode : Constant
Frame rate : 24.000 FPS
Color space : YUV
Chroma subsampling : 4:2:0
Bit depth : 8 bits
Scan type : Progressive
Bits/(Pixel*Frame) : 0.097
Stream size : 2.91 GiB (84%)
Title : AVC
Writing library : x264 core 142
Encoding settings : cabac=1 / ref=1 / deblock=1👎-1 / analyse=0x3:0 / me=hex / subme=5 / psy=0 / mixed_ref=0 / me_range=16 / chroma_me=1 / trellis=0 / 8x8dct=1 / cqm=0 / deadzone=21,11 / fast_pskip=0 / chroma_qp_offset=0 / threads=16 / lookahead_threads=4 / sliced_threads=0 / nr=0 / decimate=1 / interlaced=0 / bluray_compat=0 / constrained_intra=0 / bframes=2 / b_pyramid=0 / b_adapt=1 / b_bias=0 / direct=1 / weightb=0 / open_gop=0 / weightp=0 / keyint=24 / keyint_min=13 / scenecut=40 / intra_refresh=0 / rc=crf / mbtree=0 / crf=22.0 / qcomp=0.60 / qpmin=0 / qpmax=69 / qpstep=4 / ip_ratio=1.40 / pb_ratio=1.30 / aq=1:1.00
Language : Spanish
Default : Yes
Forced : Yes
Color range : Limited
Color primaries : BT.709
Transfer characteristics : BT.709
Matrix coefficients : BT.709


Audio [Tienes que estar registrado y conectado para ver este vínculo]
ID : 2
Format : AC-3
Format/Info : Audio Coding 3
Commercial name : Dolby Digital
Codec ID : A_AC3
Duration : 1 h 26 min
Bit rate mode : Constant
Bit rate : 448 kb/s
Channel(s) : 2 channels
Channel layout : L R
Sampling rate : 48.0 kHz
Frame rate : 31.250 FPS (1536 SPF)
Bit depth : 16 bits
Compression mode : Lossy
Stream size : 276 MiB (8%)
Title : AC-3
Language : Spanish
Service kind : Complete Main
Default : Yes
Forced : Yes


Audio [Tienes que estar registrado y conectado para ver este vínculo]
ID : 3
Format : AC-3
Format/Info : Audio Coding 3
Commercial name : Dolby Digital
Codec ID : A_AC3
Duration : 1 h 26 min
Bit rate mode : Constant
Bit rate : 448 kb/s
Channel(s) : 6 channels
Channel layout : L R C LFE Ls Rs
Sampling rate : 48.0 kHz
Frame rate : 31.250 FPS (1536 SPF)
Bit depth : 16 bits
Compression mode : Lossy
Stream size : 276 MiB (8%)
Title : AC-3
Language : Arabic
Service kind : Complete Main
Default : No
Forced : No


Text [Tienes que estar registrado y conectado para ver este vínculo]
ID : 4
Format : UTF-8
Codec ID : S_TEXT/UTF8
Codec ID/Info : UTF-8 Plain Text
Duration : 4 s 403 ms
Bit rate : 18 b/s
Count of elements : 1
Stream size : 10.0 Bytes (0%)
Title : FORZADOS
Language : Spanish
Default : Yes
Forced : Yes


Text [Tienes que estar registrado y conectado para ver este vínculo]
ID : 5
Format : UTF-8
Codec ID : S_TEXT/UTF8
Codec ID/Info : UTF-8 Plain Text
Duration : 1 h 19 min
Bit rate : 24 b/s
Count of elements : 566
Stream size : 14.3 KiB (0%)
Title : COMPLETOS
Language : Spanish
Default : No
Forced : No


Menu
00:00:00.000 : en:00:00:00.000
00:11:53.875 : en:00:11:53.875
00:15:19.625 : en:00:15:19.625
00:18:28.667 : en:00:18:28.667
00:23:42.667 : en:00:23:42.667
00:29:00.000 : en:00:29:00.000
00:43:33.292 : en:00:43:33.292
01:00:34.958 : en:01:00:34.958
01:08:56.917 : en:01:08:56.917
01:12:21.208 : en:01:12:21.208
01:16:33.333 : en:01:16:33.333
01:22:19.000 : en:01:22:19.000


Enlaces Descarga
Tusfiles - Uptobox - Userscloud - 1fichier - Filerio - Hitfile - Rapidgator - Turbobit - Wayupload
En algunos servidores (Tusfiles, Filebebo, Sendit, Userscloud...) es necesario estar registrado para descargar archivos grandes y a mayor velocidad.


Enlaces Online
Rapidvideo - ok.ru - Openload - Vidoza - Streamango - Streamcherry - Vidlox - Userscloud - Uptostream
Para ver online en Sendit, Userscloud y Filebebo necesitas estar registrado en su página y usar el navegador Google Chrome


Reproductor
(ok.ru)



NOTA: Por favor, si los enlaces están caidos avisa en un comentario para poder resubirlos. Gracias

______________________________________________________
[Tienes que estar registrado y conectado para ver este vínculo]
Saludos  Smile
Volver arriba
Permisos de este foro:
No puedes responder a temas en este foro.