Comparte
Ir abajo
avatar
Admin
Administrador
Administrador
Sexo : Masculino
Mensajes : 2234
Puntos : 6806
Reputación : 1322
Fecha de inscripción : 02/04/2012
Localización : España

Comedia Uncle Drew (2018) [Ver Online] [Descargar] [HD 1080p] [Spa-Eng] [Comedia]

el Sáb 22 Sep 2018 - 14:03

Ficha Técnica
SINOPSIS: Dax ha gastados los ahorros de toda una vida para competir en el Rucker Classic street ball Tournament de Harlem. Por desgracia, una serie de desafortunados acontecimientos acaban con casi todas las esperanzas de Dax. Pero hay una última oportunidad de ganar el premio: ¡Uncle Drew! El mito y leyenda interpretado por la estrella de la NBA Kyrie Irving. Sin embargo, es un anciano que lleva mucho tiempo sin competir y será difícil rendir a gran nivel, pero las apariencias engañan... Juntos se embarcarán en un viaje para reunir al viejo equipo e intentar ganar el gran torneo.

Largometraje que toma como referencia la serie creada por Pepsi en la que superestrellas de la NBA se caracterizan como ancianos para sorprender a los jóvenes que juegan en las canchas.
AÑO: [Tienes que estar registrado y conectado para ver este vínculo]
DURACIÓN: 103 min.
PAÍS:  Estados Unidos
DIRECCIÓN: Charles Stone III
REPARTO: Kyrie Irving,  Tiffany Haddish,  LilRel Howery,  Nick Kroll,  Nate Robinson, Shaquille O'Neal,  Erica Ash,  Terence Rosemore,  J.B. Smoove,  Jamel Chambers, Maiya Boyd,  Lisa Leslie,  Crystal Lee Brown,  Benjamin Weaver,  Carrie L. Walrond, Elijah Everett,  Phil Ductan,  Shaun McMillan,  Josh Henry,  Gage Lawson, Devon Mckelvin,  Reggie Miller,  Erin Bradley Dangar,  Chris Webber,  Ashton Tyler, Matt McHugh
GÉNERO: [Tienes que estar registrado y conectado para ver este vínculo] | [Tienes que estar registrado y conectado para ver este vínculo] [Tienes que estar registrado y conectado para ver este vínculo]

Capturas



Trailer

Info
CALIDAD DE VIDEO: m1080p MPEG4 Video (H264) 1920x1036
CALIDAD DE AUDIO 1: Castellano AC-3 5.1 448 Kbps
CALIDAD DE AUDIO 2: Inglés AC-3 5.1 448 Kbps
SUBTITULOS: Incluye completos en Español e Inglés y forzados en Español.
TAMAÑO: 4.44 GiB
Mediainfo:
Format                      : Matroska
Format version              : Version 4 / Version 2
File size                   : 4.44 GiB
Duration                    : 1 h 43 min
Overall bit rate            : 6 157 kb/s
Movie name                  : Uncle Drew - [Tienes que estar registrado y conectado para ver este vínculo]
Encoded date                : UTC 2018-09-21 23:22:46
Writing application         : mkvmerge v25.0.0 ('Prog Noir') 64-bit
Writing library             : libebml v1.3.6 + libmatroska v1.4.9


Video
ID                          : 1
Format                      : AVC
Format/Info                 : Advanced Video Codec
Format profile              : High@L4.1
Format settings             : CABAC / 5 Ref Frames
Format settings, CABAC      : Yes
Format settings, ReFrames   : 5 frames
Codec ID                    : V_MPEG4/ISO/AVC
Duration                    : 1 h 43 min
Bit rate                    : 5 259 kb/s
Width                       : 1 920 pixels
Height                      : 1 036 pixels
Display aspect ratio        : 1.85:1
Frame rate mode             : Constant
Frame rate                  : 23.976 (24000/1001) FPS
Color space                 : YUV
Chroma subsampling          : 4:2:0
Bit depth                   : 8 bits
Scan type                   : Progressive
Bits/(Pixel*Frame)          : 0.110
Stream size                 : 3.80 GiB (85%)
Title                       : AVC
Writing library             : x264 core 142 r2479 dd79a61
Encoding settings           : cabac=1 / ref=5 / deblock=1:-3:-3 / analyse=0x3:0x113 / me=umh / subme=11 / psy=1 / psy_rd=1.10:0.00 / mixed_ref=1 / me_range=48 / chroma_me=1 / trellis=2 / 8x8dct=1 / cqm=0 / deadzone=21,11 / fast_pskip=1 / chroma_qp_offset=-2 / threads=72 / lookahead_threads=8 / sliced_threads=0 / nr=0 / decimate=1 / interlaced=0 / bluray_compat=0 / constrained_intra=0 / bframes=5 / b_pyramid=2 / b_adapt=2 / b_bias=0 / direct=1 / weightb=1 / open_gop=0 / weightp=2 / keyint=240 / keyint_min=24 / scenecut=40 / intra_refresh=0 / rc_lookahead=70 / rc=crf / mbtree=1 / crf=20.5 / qcomp=0.70 / qpmin=0 / qpmax=69 / qpstep=4 / vbv_maxrate=62500 / vbv_bufsize=78125 / crf_max=0.0 / nal_hrd=none / filler=0 / ip_ratio=1.40 / aq=1:1.10
Language                    : Spanish
Default                     : Yes
Forced                      : Yes
Color range                 : Limited
Color primaries             : BT.709
Transfer characteristics    : BT.709
Matrix coefficients         : BT.709


Audio [Tienes que estar registrado y conectado para ver este vínculo]
ID                          : 2
Format                      : AC-3
Format/Info                 : Audio Coding 3
Commercial name             : Dolby Digital
Codec ID                    : A_AC3
Duration                    : 1 h 43 min
Bit rate mode               : Constant
Bit rate                    : 448 kb/s
Channel(s)                  : 6 channels
Channel layout              : L R C LFE Ls Rs
Sampling rate               : 48.0 kHz
Frame rate                  : 31.250 FPS (1536 SPF)
Bit depth                   : 16 bits
Compression mode            : Lossy
Delay relative to video     : -5 ms
Stream size                 : 331 MiB (7%)
Title                       : AC-3
Language                    : Spanish
Service kind                : Complete Main
Default                     : Yes
Forced                      : Yes


Audio [Tienes que estar registrado y conectado para ver este vínculo]
ID                          : 3
Format                      : AC-3
Format/Info                 : Audio Coding 3
Commercial name             : Dolby Digital
Codec ID                    : A_AC3
Duration                    : 1 h 43 min
Bit rate mode               : Constant
Bit rate                    : 448 kb/s
Channel(s)                  : 6 channels
Channel layout              : L R C LFE Ls Rs
Sampling rate               : 48.0 kHz
Frame rate                  : 31.250 FPS (1536 SPF)
Bit depth                   : 16 bits
Compression mode            : Lossy
Delay relative to video     : -5 ms
Stream size                 : 331 MiB (7%)
Title                       : AC-3
Language                    : English
Service kind                : Complete Main
Default                     : No
Forced                      : No


Text [Tienes que estar registrado y conectado para ver este vínculo]
ID                          : 4
Format                      : UTF-8
Codec ID                    : S_TEXT/UTF8
Codec ID/Info               : UTF-8 Plain Text
Duration                    : 58 min 6 s
Bit rate                    : 0 b/s
Count of elements           : 5
Stream size                 : 137 Bytes (0%)
Title                       : FORZADOS
Language                    : Spanish
Default                     : Yes
Forced                      : Yes


Text [Tienes que estar registrado y conectado para ver este vínculo]
ID                          : 5
Format                      : UTF-8
Codec ID                    : S_TEXT/UTF8
Codec ID/Info               : UTF-8 Plain Text
Duration                    : 1 h 38 min
Bit rate                    : 85 b/s
Count of elements           : 2097
Stream size                 : 61.7 KiB (0%)
Title                       : COMPLETOS
Language                    : Spanish
Default                     : No
Forced                      : No


Text [Tienes que estar registrado y conectado para ver este vínculo]
ID                          : 6
Format                      : UTF-8
Codec ID                    : S_TEXT/UTF8
Codec ID/Info               : UTF-8 Plain Text
Duration                    : 1 h 38 min
Bit rate                    : 105 b/s
Count of elements           : 2347
Stream size                 : 76.3 KiB (0%)
Title                       : COMPLETOS
Language                    : English
Default                     : No
Forced                      : No


Menu
00:00:00.000                : en:00:00:00.000
00:06:33.435                : en:00:06:33.435
00:11:59.344                : en:00:11:59.344
00:17:44.939                : en:00:17:44.939
00:25:45.335                : en:00:25:45.335
00:30:54.227                : en:00:30:54.227
00:37:45.847                : en:00:37:45.847
00:42:25.793                : en:00:42:25.793
00:48:51.387                : en:00:48:51.387
00:54:09.788                : en:00:54:09.788
01:00:13.068                : en:01:00:13.068
01:06:07.964                : en:01:06:07.964
01:12:28.969                : en:01:12:28.969
01:17:34.149                : en:01:17:34.149
01:26:37.943                : en:01:26:37.943
01:32:36.384                : en:01:32:36.384


Enlaces Descarga
Tusfiles - Uptobox - Userscloud - 1fichier - Depositfiles - Filerio - Rapidgator - Wayupload
En algunos servidores (Tusfiles, Filebebo, Sendit, Userscloud...) es necesario estar registrado para descargar archivos grandes y a mayor velocidad.


Enlaces Online
Rapidvideo - ok.ru - Openload - Vidoza - Streamango - Streamcherry - Vidlox - Vidcloud - Userscloud - Uptostream
Para ver online en Sendit y Userscloud necesitas estar registrado en su página y usar el navegador Google Chrome


NOTA: Por favor, si los enlaces están caidos avisa en un comentario para poder resubirlos. Gracias

______________________________________________________
[Tienes que estar registrado y conectado para ver este vínculo]
Saludos  Smile
Volver arriba
Permisos de este foro:
No puedes responder a temas en este foro.