Comparte
Ir abajo
avatar
Admin
Administrador
Administrador
Sexo : Masculino
Mensajes : 1903
Puntos : 5835
Reputación : 1224
Fecha de inscripción : 02/04/2012
Localización : España

Drama The Place: El precio de un deseo [Ver + Descargar] [HD 1080p] [Spa-Ita] [Drama]

el Dom 23 Sep 2018 - 12:47
Reputación del mensaje :100% (1 voto)

Ficha Técnica
SINOPSIS: En un bar llamado The Place, un hombre sentado siempre en la misma mesa ve entrar y salir a diez personajes, todos los días a todas horas, que vienen a hablar con él. Éste les da indicaciones sobre cómo satisfacer los propios deseos; de hecho, estipula con ellos un auténtico contrato. Ser más hermosa, pasar una noche con una estrella del porno, salvar al hijo, recuperar la vista y encontrar a Dios son solo algunos de los deseos que los varios personajes exponen al hombre del bar. “Puede hacerse”, responde él, mientras escribe en su agenda, llena de apuntes. Pero hay que pagar un precio, casi siempre altísimo: robar una buena suma de dinero, poner una bomba en un local, violar a una mujer… Si se lleva a cabo el deber asignado, el éxito está garantizado. Cada uno de ellos decidirá si acepta o rechaza el acuerdo.
TÍTULO ORIGINAL: The Place
AÑO: [Tienes que estar registrado y conectado para ver este vínculo]
DURACIÓN: 105 min.
PAÍS:  Italia
DIRECCIÓN: Paolo Genovese
REPARTO: Valerio Mastandrea, Marco Giallini, Alessandro Borghi, Silvio Muccino, Alba Rohrwacher, Vittoria Puccini, Sabrina Ferilli, Silvia D'Amico, Rocco Papaleo, Giulia Lazzarini, Vinicio Marchioni
GÉNERO: [Tienes que estar registrado y conectado para ver este vínculo]

Capturas



Trailer

Info
CALIDAD DE VIDEO: m1080p MPEG4 Video (H264) 1920x804
CALIDAD DE AUDIO 1: Castellano AC-3 5.1 448 Kbps
CALIDAD DE AUDIO 2: Italiano AC-3 5.1 448 Kbps
SUBTITULOS: Incluye completos en Español e Inglés y forzados en Español.
TAMAÑO: 4.11 GiB
Mediainfo:
Format : Matroska
Format version : Version 4 / Version 2
File size : 4.11 GiB
Duration : 1 h 41 min
Overall bit rate : 5 818 kb/s
Movie name : El placer de un deseo - [Tienes que estar registrado y conectado para ver este vínculo]
Encoded date : UTC 2018-09-22 08:04:08
Writing application : mkvmerge v25.0.0 ('Prog Noir') 64-bit
Writing library : libebml v1.3.6 + libmatroska v1.4.9


Video
ID : 1
Format : AVC
Format/Info : Advanced Video Codec
Format profile : High@L4.1
Format settings : CABAC / 5 Ref Frames
Format settings, CABAC : Yes
Format settings, ReFrames : 5 frames
Codec ID : V_MPEG4/ISO/AVC
Duration : 1 h 41 min
Bit rate : 4 919 kb/s
Width : 1 920 pixels
Height : 804 pixels
Display aspect ratio : 2.40:1
Frame rate mode : Constant
Frame rate : 50.000 FPS
Color space : YUV
Chroma subsampling : 4:2:0
Bit depth : 8 bits
Scan type : Progressive
Bits/(Pixel*Frame) : 0.064
Stream size : 3.48 GiB (85%)
Title : AVC
Writing library : x264 core 155 r2901 7d0ff22
Encoding settings : cabac=1 / ref=5 / deblock=1:-3:-3 / analyse=0x3:0x113 / me=umh / subme=11 / psy=1 / psy_rd=1.10:0.00 / mixed_ref=1 / me_range=48 / chroma_me=1 / trellis=2 / 8x8dct=1 / cqm=0 / deadzone=21,11 / fast_pskip=0 / chroma_qp_offset=-2 / threads=48 / lookahead_threads=4 / sliced_threads=0 / nr=0 / decimate=1 / interlaced=0 / bluray_compat=0 / constrained_intra=0 / bframes=12 / b_pyramid=2 / b_adapt=2 / b_bias=0 / direct=1 / weightb=1 / open_gop=0 / weightp=2 / keyint=500 / keyint_min=50 / scenecut=40 / intra_refresh=0 / rc_lookahead=80 / rc=crf / mbtree=1 / crf=18.8 / qcomp=0.75 / qpmin=0 / qpmax=69 / qpstep=4 / vbv_maxrate=62500 / vbv_bufsize=78125 / crf_max=0.0 / nal_hrd=none / filler=0 / ip_ratio=1.40 / aq=3:1.10
Default : Yes
Forced : Yes
Color range : Limited
Color primaries : BT.709
Transfer characteristics : BT.709
Matrix coefficients : BT.709


Audio [Tienes que estar registrado y conectado para ver este vínculo]
ID : 2
Format : AC-3
Format/Info : Audio Coding 3
Commercial name : Dolby Digital
Codec ID : A_AC3
Duration : 1 h 41 min
Bit rate mode : Constant
Bit rate : 448 kb/s
Channel(s) : 6 channels
Channel layout : L R C LFE Ls Rs
Sampling rate : 48.0 kHz
Frame rate : 31.250 FPS (1536 SPF)
Bit depth : 16 bits
Compression mode : Lossy
Stream size : 324 MiB (8%)
Title : AC-3
Language : Spanish
Service kind : Complete Main
Default : Yes
Forced : Yes


Audio [Tienes que estar registrado y conectado para ver este vínculo]
ID : 3
Format : AC-3
Format/Info : Audio Coding 3
Commercial name : Dolby Digital
Codec ID : A_AC3
Duration : 1 h 41 min
Bit rate mode : Constant
Bit rate : 448 kb/s
Channel(s) : 6 channels
Channel layout : L R C LFE Ls Rs
Sampling rate : 48.0 kHz
Frame rate : 31.250 FPS (1536 SPF)
Bit depth : 16 bits
Compression mode : Lossy
Stream size : 324 MiB (8%)
Title : AC-3
Language : Italian
Service kind : Complete Main
Default : No
Forced : No


Text [Tienes que estar registrado y conectado para ver este vínculo]
ID : 4
Format : UTF-8
Codec ID : S_TEXT/UTF8
Codec ID/Info : UTF-8 Plain Text
Duration : 3 s 520 ms
Bit rate : 47 b/s
Count of elements : 1
Stream size : 21.0 Bytes (0%)
Title : FORZADOS
Language : Spanish
Default : Yes
Forced : Yes


Text [Tienes que estar registrado y conectado para ver este vínculo]
ID : 5
Format : UTF-8
Codec ID : S_TEXT/UTF8
Codec ID/Info : UTF-8 Plain Text
Duration : 1 h 34 min
Bit rate : 59 b/s
Count of elements : 1400
Stream size : 41.3 KiB (0%)
Title : COMPLETOS
Language : Spanish
Default : No
Forced : No


Text [Tienes que estar registrado y conectado para ver este vínculo]
ID : 6
Format : UTF-8
Codec ID : S_TEXT/UTF8
Codec ID/Info : UTF-8 Plain Text
Duration : 1 h 38 min
Bit rate : 54 b/s
Count of elements : 1372
Stream size : 39.1 KiB (0%)
Title : COMPLETOS
Language : English
Default : No
Forced : No


Menu
00:00:00.000 : en:Chapter 1
00:08:33.960 : en:Chapter 2
00:17:14.560 : en:Chapter 3
00:22:40.080 : en:Chapter 4
00:31:32.320 : en:Chapter 5
00:40:42.800 : en:Chapter 6
00:47:52.880 : en:Chapter 7
00:56:21.920 : en:Chapter 8
01:04:23.680 : en:Chapter 9
01:12:34.120 : en:Chapter 10
01:21:01.880 : en:Chapter 11
01:28:00.000 : en:Chapter 12


Enlaces Descarga
Tusfiles - Uptobox - Userscloud - 1fichier - Depositfiles - Filerio - Rapidgator - Wayupload
En algunos servidores (Tusfiles, Filebebo, Sendit, Userscloud...) es necesario estar registrado para descargar archivos grandes y a mayor velocidad.


Enlaces Online
Rapidvideo - ok.ru - Openload - Vidoza - Streamango - Streamcherry - Vidlox - Userscloud
Para ver online en Sendit y Userscloud necesitas estar registrado en su página y usar el navegador Google Chrome


Reproductor
(ok.ru)



NOTA: Por favor, si los enlaces están caidos avisa en un comentario para poder resubirlos. Gracias

______________________________________________________
[Tienes que estar registrado y conectado para ver este vínculo]
Saludos  Smile
Volver arriba
Permisos de este foro:
No puedes responder a temas en este foro.