Comparte
Ir abajo
avatar
Admin
Administrador
Administrador
Sexo : Masculino
Mensajes : 1491
Puntos : 4727
Reputación : 1098
Fecha de inscripción : 02/04/2012
Localización : España

Thriller Basada en hechos reales (2017) [Ver + Descargar] [1080p] [Spa-Fre] [Thriller]

el Dom 23 Sep 2018 - 22:27
Reputación del mensaje :100% (1 voto)

Ficha Técnica
SINOPSIS: Delphine (Emmanuelle Seigner) es una sensible y atormentada novelista de éxito, paralizada ante la idea de tener que comenzar a escribir una nueva novela. Su camino se cruza entonces con el de Elle (Eva Green), una joven encantadora, inteligente e intuitiva. Elle comprende a Delphine mejor que nadie, y pronto se convierte en su confidente. Delphine confía en Elle y le abre las puertas de su vida. Pero ¿quién es Elle en realidad? ¿Qué pretende? ¿Ha venido para darle un nuevo impulso a la vida de Delphine o para arrebatársela?
TÍTULO ORIGINAL: D'après une histoire vraie
AÑO: [Tienes que estar registrado y conectado para ver este vínculo]
DURACIÓN: 110 min.
PAÍS:  Francia
DIRECCIÓN: Paolo Genovese
REPARTO: Emmanuelle Seigner, Eva Green, Vincent Pérez, Damien Bonnard, Camille Chamoux, Josée Dayan, Noémie Lvovsky, Dominique Pinon, Brigitte Roüan, Alexia Séféroglou
GÉNERO: [Tienes que estar registrado y conectado para ver este vínculo] [Tienes que estar registrado y conectado para ver este vínculo] | [Tienes que estar registrado y conectado para ver este vínculo]

Capturas



Trailer

Info
CALIDAD DE VIDEO: m1080p MPEG4 Video (H264) 1920x800
CALIDAD DE AUDIO 1: Castellano DTS 5.1 1509 Kbps
CALIDAD DE AUDIO 2: Castellano AC-3 5.1 640 Kbps
CALIDAD DE AUDIO 3: Francés AC-3 5.1 448 Kbps
SUBTITULOS: Incluye completos y forzados en Español.
TAMAÑO: 4.53 GiB
Mediainfo:
Format : Matroska
Format version : Version 4 / Version 2
File size : 4.53 GiB
Duration : 1 h 41 min
Overall bit rate : 6 408 kb/s
Movie name : Basada en hechos reales - [Tienes que estar registrado y conectado para ver este vínculo]
Encoded date : UTC 2018-09-23 11:21:14
Writing application : mkvmerge v25.0.0 ('Prog Noir') 64-bit
Writing library : libebml v1.3.6 + libmatroska v1.4.9


Video
ID : 1
Format : AVC
Format/Info : Advanced Video Codec
Format profile : High@L4.1
Format settings : CABAC / 5 Ref Frames
Format settings, CABAC : Yes
Format settings, ReFrames : 5 frames
Codec ID : V_MPEG4/ISO/AVC
Duration : 1 h 41 min
Bit rate : 3 819 kb/s
Width : 1 920 pixels
Height : 800 pixels
Display aspect ratio : 2.40:1
Frame rate mode : Constant
Frame rate : 23.976 (24000/1001) FPS
Color space : YUV
Chroma subsampling : 4:2:0
Bit depth : 8 bits
Scan type : Progressive
Bits/(Pixel*Frame) : 0.104
Stream size : 2.70 GiB (60%)
Title : AVC
Writing library : x264 core 142 r2479 dd79a61
Encoding settings : cabac=1 / ref=5 / deblock=1:-3:-3 / analyse=0x3:0x113 / me=umh / subme=11 / psy=1 / psy_rd=1.10:0.00 / mixed_ref=1 / me_range=48 / chroma_me=1 / trellis=2 / 8x8dct=1 / cqm=0 / deadzone=21,11 / fast_pskip=0 / chroma_qp_offset=-2 / threads=72 / lookahead_threads=6 / sliced_threads=0 / nr=0 / decimate=1 / interlaced=0 / bluray_compat=0 / constrained_intra=0 / bframes=5 / b_pyramid=2 / b_adapt=2 / b_bias=0 / direct=1 / weightb=1 / open_gop=0 / weightp=2 / keyint=240 / keyint_min=24 / scenecut=40 / intra_refresh=0 / rc_lookahead=80 / rc=crf / mbtree=1 / crf=20.0 / qcomp=0.70 / qpmin=0 / qpmax=69 / qpstep=4 / vbv_maxrate=62500 / vbv_bufsize=78125 / crf_max=0.0 / nal_hrd=none / filler=0 / ip_ratio=1.40 / aq=1:1.10
Language : Spanish
Default : Yes
Forced : Yes
Color range : Limited
Color primaries : BT.709
Transfer characteristics : BT.709
Matrix coefficients : BT.709


Audio [Tienes que estar registrado y conectado para ver este vínculo]
ID : 2
Format : DTS
Format/Info : Digital Theater Systems
Codec ID : A_DTS
Duration : 1 h 40 min
Bit rate : 1 509 kb/s
Channel(s) : 6 channels
Sampling rate : 48.0 kHz
Frame rate : 93.750 FPS (512 SPF)
Bit depth : 16 bits
Stream size : 1.06 GiB (23%)
Title : DTS
Language : Spanish
Default : Yes
Forced : Yes


Audio [Tienes que estar registrado y conectado para ver este vínculo]
ID : 3
Format : AC-3
Format/Info : Audio Coding 3
Commercial name : Dolby Digital
Codec ID : A_AC3
Duration : 1 h 41 min
Bit rate mode : Constant
Bit rate : 640 kb/s
Channel(s) : 6 channels
Channel layout : L R C LFE Ls Rs
Sampling rate : 48.0 kHz
Frame rate : 31.250 FPS (1536 SPF)
Bit depth : 16 bits
Compression mode : Lossy
Stream size : 463 MiB (10%)
Title : AC-3
Language : Spanish
Service kind : Complete Main
Default : No
Forced : No


Audio [Tienes que estar registrado y conectado para ver este vínculo]
ID : 4
Format : AC-3
Format/Info : Audio Coding 3
Commercial name : Dolby Digital
Codec ID : A_AC3
Duration : 1 h 41 min
Bit rate mode : Constant
Bit rate : 448 kb/s
Channel(s) : 6 channels
Channel layout : L R C LFE Ls Rs
Sampling rate : 48.0 kHz
Frame rate : 31.250 FPS (1536 SPF)
Bit depth : 16 bits
Compression mode : Lossy
Stream size : 324 MiB (7%)
Title : AC-3
Language : French
Service kind : Complete Main
Default : No
Forced : No


Text [Tienes que estar registrado y conectado para ver este vínculo]
ID : 5
Format : UTF-8
Codec ID : S_TEXT/UTF8
Codec ID/Info : UTF-8 Plain Text
Duration : 20 min 47 s
Bit rate : 0 b/s
Count of elements : 3
Stream size : 90.0 Bytes (0%)
Title : FORZADOS
Language : Spanish
Default : Yes
Forced : Yes


Text [Tienes que estar registrado y conectado para ver este vínculo]
ID : 6
Format : UTF-8
Codec ID : S_TEXT/UTF8
Codec ID/Info : UTF-8 Plain Text
Duration : 1 h 35 min
Bit rate : 48 b/s
Count of elements : 1208
Stream size : 33.7 KiB (0%)
Title : COMPLETOS
Language : Spanish
Default : No
Forced : No


Menu
00:00:00.000 : en:00:00:00.000
00:05:15.333 : en:00:05:15.333
00:11:46.750 : en:00:11:46.750
00:18:48.000 : en:00:18:48.000
00:28:29.667 : en:00:28:29.667
00:36:41.333 : en:00:36:41.333
00:48:39.708 : en:00:48:39.708
01:01:00.333 : en:01:01:00.333
01:11:11.917 : en:01:11:11.917
01:20:10.958 : en:01:20:10.958
01:32:13.250 : en:01:32:13.250
01:36:48.667 : en:01:36:48.667


Enlaces Descarga
Tusfiles - Userscloud - 1fichier - Depositfiles - Filerio - Rapidgator - Wayupload
En algunos servidores (Tusfiles, Sendit, Userscloud...) es necesario estar registrado para descargar archivos grandes y a mayor velocidad.


Enlaces Online
Rapidvideo - ok.ru - Openload - Vidoza - Streamango - StreamcherryVidlox - Userscloud - Uptostream
Para ver online en Userscloud necesitas estar registrado en su página y usar el navegador Google Chrome


Reproductor
(ok.ru)



NOTA: Por favor, si los enlaces están caidos avisa en un comentario para poder resubirlos. Gracias

______________________________________________________
Saludos  Smile
Volver arriba
Permisos de este foro:
No puedes responder a temas en este foro.