Comparte
Ir abajo
Admin
Admin
Administrador
Administrador
Sexo : Masculino
Mensajes : 5946
Puntos : 18992
Reputación : 3522
Fecha de inscripción : 02/04/2012
Localización : Alemania

Comedia Benji (2018) [Ver Online] [Descargar] [HD 1080p] [Español + Inglés] [Comedia]

el Dom 18 Mar 2018 - 23:34
Reputación del mensaje :100% (1 voto)
Benji (2018) [Ver Online] [Descargar] [HD 1080p] [Español + Inglés] [Comedia] Benji-880744676-large
Ficha Técnica
SINOPSIS: Una familia vuelve a ser feliz gracias a un perro muy valiente que acude al rescate de un niño y su hermana pequeña en grave peligro.
TÍTULO ORIGINAL: Benji
AÑO: [Tienes que estar registrado y conectado para ver este vínculo]
DURACIÓN: 87 min
PAÍS: Estados Unidos
DIRECTOR: Brandon Camp
REPARTO: Gabriel Bateman, Darby Camp, Jerod Haynes, Gralen Bryant Banks, Angus Sampson, Will Rothhaar, James W. Evermore
GÉNERO: [Tienes que estar registrado y conectado para ver este vínculo] |[Tienes que estar registrado y conectado para ver este vínculo] [Tienes que estar registrado y conectado para ver este vínculo] / [Tienes que estar registrado y conectado para ver este vínculo]
Benji (2018) [Ver Online] [Descargar] [HD 1080p] [Español + Inglés] [Comedia] Separador_texto_5
Capturas

Benji (2018) [Ver Online] [Descargar] [HD 1080p] [Español + Inglés] [Comedia] 196_FPFO09_RKSSSXOB07_QT

Benji (2018) [Ver Online] [Descargar] [HD 1080p] [Español + Inglés] [Comedia] 196_FPFO09_RT2_H8_F0_F071_Z

Benji (2018) [Ver Online] [Descargar] [HD 1080p] [Español + Inglés] [Comedia] 196_FPFO09_RT22_W1_TKVYI8
Benji (2018) [Ver Online] [Descargar] [HD 1080p] [Español + Inglés] [Comedia] Separador_texto_5
Trailer

Info
Formato: mkv
Tamaño: 4.23 GB (sin comprimir)
Video: HD 1080p
Audio: AC-3 + MP3
Idioma: Español + Inglés
Subtitulos: Forzados + Completos
Mediainfo:
General
Format                      : Matroska
Format version              : Version 4 / Version 2
File size                   : 4.23 GiB
Duration                    : 1 h 27 min
Overall bit rate mode       : Variable
Overall bit rate            : 6 944 kb/s
Movie name                  : Benji - [Tienes que estar registrado y conectado para ver este vínculo]
Encoded date                : UTC 2018-03-18 10:10:23
Writing application         : mkvmerge v19.0.0 ('Brave Captain') 64-bit
Writing library             : libebml v1.3.5 + libmatroska v1.4.8

Video
ID                          : 1
Format                      : AVC
Format/Info                 : Advanced Video Codec
Format profile              : Main@L4
Format settings             : CABAC / 3 Ref Frames
Format settings, CABAC      : Yes
Format settings, RefFrames  : 3 frames
Codec ID                    : V_MPEG4/ISO/AVC
Duration                    : 1 h 27 min
Bit rate mode               : Variable
Bit rate                    : 5 800 kb/s
Maximum bit rate            : 8 700 kb/s
Width                       : 1 920 pixels
Height                      : 1 080 pixels
Display aspect ratio        : 16:9
Frame rate mode             : Constant
Frame rate                  : 23.976 (24000/1001) FPS
Color space                 : YUV
Chroma subsampling          : 4:2:0
Bit depth                   : 8 bits
Scan type                   : Progressive
Bits/(Pixel*Frame)          : 0.117
Stream size                 : 3.49 GiB (82%)
Writing library             : x264 core 148 r2715 7e75228
Language                    : Spanish
Default                     : Yes
Forced                      : No

Audio [Tienes que estar registrado y conectado para ver este vínculo]
ID                          : 2
Format                      : MPEG Audio
Format version              : Version 1
Format profile              : Layer 3
Codec ID                    : A_MPEG/L3
Codec ID/Hint               : MP3
Duration                    : 1 h 27 min
Bit rate mode               : Constant
Bit rate                    : 320 kb/s
Channel(s)                  : 2 channels
Sampling rate               : 44.1 kHz
Frame rate                  : 38.281 FPS (1152 SPF)
Compression mode            : Lossy
Stream size                 : 200 MiB (5%)
Title                       : MP3
Language                    : Spanish
Default                     : Yes
Forced                      : Yes

Audio [Tienes que estar registrado y conectado para ver este vínculo]
ID                          : 3
Format                      : AC-3
Format/Info                 : Audio Coding 3
Format settings, Endianness : Big
Codec ID                    : A_AC3
Duration                    : 1 h 27 min
Bit rate mode               : Constant
Bit rate                    : 448 kb/s
Channel(s)                  : 6 channels
Channel positions           : Front: L C R, Side: L R, LFE
Sampling rate               : 48.0 kHz
Frame rate                  : 31.250 FPS (1536 SPF)
Bit depth                   : 16 bits
Compression mode            : Lossy
Stream size                 : 280 MiB (6%)
Title                       : AC-3
Language                    : Spanish
Service kind                : Complete Main
Default                     : No
Forced                      : No

Audio [Tienes que estar registrado y conectado para ver este vínculo]
ID                          : 4
Format                      : AC-3
Format/Info                 : Audio Coding 3
Format settings, Endianness : Big
Codec ID                    : A_AC3
Duration                    : 1 h 27 min
Bit rate mode               : Constant
Bit rate                    : 448 kb/s
Channel(s)                  : 6 channels
Channel positions           : Front: L C R, Side: L R, LFE
Sampling rate               : 48.0 kHz
Frame rate                  : 31.250 FPS (1536 SPF)
Bit depth                   : 16 bits
Compression mode            : Lossy
Stream size                 : 280 MiB (6%)
Title                       : AC-3
Language                    : English
Service kind                : Complete Main
Default                     : No
Forced                      : No

Text [Tienes que estar registrado y conectado para ver este vínculo]
ID                          : 5
Format                      : UTF-8
Codec ID                    : S_TEXT/UTF8
Codec ID/Info               : UTF-8 Plain Text
Duration                    : 1 h 25 min
Bit rate                    : 4 b/s
Count of elements           : 96
Stream size                 : 2.99 KiB (0%)
Title                       : Forzados
Language                    : Spanish
Default                     : Yes
Forced                      : Yes

Text [Tienes que estar registrado y conectado para ver este vínculo]
ID                          : 6
Format                      : UTF-8
Codec ID                    : S_TEXT/UTF8
Codec ID/Info               : UTF-8 Plain Text
Duration                    : 1 h 25 min
Bit rate                    : 39 b/s
Count of elements           : 795
Stream size                 : 24.6 KiB (0%)
Title                       : Completos
Language                    : Spanish
Default                     : No
Forced                      : No

Text [Tienes que estar registrado y conectado para ver este vínculo]
ID                          : 7
Format                      : UTF-8
Codec ID                    : S_TEXT/UTF8
Codec ID/Info               : UTF-8 Plain Text
Duration                    : 1 h 25 min
Bit rate                    : 48 b/s
Count of elements           : 956
Stream size                 : 30.7 KiB (0%)
Title                       : Completos
Language                    : English
Default                     : No
Forced                      : No
Enlaces
[Tienes que estar registrado y conectado para ver este vínculo]
[Tienes que estar registrado y conectado para ver este vínculo]
[Tienes que estar registrado y conectado para ver este vínculo]
[Tienes que estar registrado y conectado para ver este vínculo]
[Tienes que estar registrado y conectado para ver este vínculo]
[Tienes que estar registrado y conectado para ver este vínculo]
[Tienes que estar registrado y conectado para ver este vínculo]
[Tienes que estar registrado y conectado para ver este vínculo]
[Tienes que estar registrado y conectado para ver este vínculo]
[Tienes que estar registrado y conectado para ver este vínculo]
[Tienes que estar registrado y conectado para ver este vínculo]
[Tienes que estar registrado y conectado para ver este vínculo]
[Tienes que estar registrado y conectado para ver este vínculo]


NOTA: Por favor, si los enlaces están caidos avisa en un comentario para poder resubirlos. Gracias

______________________________________________________
[Tienes que estar registrado y conectado para ver este vínculo]
Saludos  Smile
Volver arriba
Permisos de este foro:
No puedes responder a temas en este foro.