Comparte
Ir abajo
Admin
Admin
Administrador
Administrador
Sexo : Masculino
Mensajes : 6959
Puntos : 25171
Reputación : 4721
Fecha de inscripción : 02/04/2012
Localización : Alemania

Thriller La Última Seducción (1994) [Ver + Descargar] [HD 1080p] [Español-Inglés] [Intriga]

el Lun 19 Mar 2018 - 1:52
Reputación del mensaje :100% (2 votos)
La Última Seducción (1994) [Ver + Descargar] [HD 1080p] [Español-Inglés] [Intriga] The-last-seduction-851061416-large
Ver y Descargar película completa La Última Seducción (1994) Castellano e Inglés MicroHd 1080p

Ficha Técnica
SINOPSIS: Bridget Gregory (Linda Fiorentino) es una mujer fría y calculadora que huye con un millón de dólares que ella y su marido (Bill Pullman) habían conseguido traficando con medicamentos. En un pequeño pueblo conoce a Mike Swale (Peter Berg), un hombre que se enamora perdidamente de ella, pero a Bridget él sólo le interesa como instrumento para librarse definitivamente de su marido y quedarse con el dinero.
TÍTULO ORIGINAL: The Last Seduction
AÑO: [Tienes que estar registrado y conectado para ver este vínculo]
DURACIÓN: 110 min.
PAÍS: Estados Unidos
DIRECTOR: John Dahl
REPARTO: Linda Fiorentino, Bill Pullman, Peter Berg, J.T. Walsh, Bill Nunn, Zack Phiffer, Dean Norris, Brian Varady, Donna Wilson
GÉNERO: [Tienes que estar registrado y conectado para ver este vínculo] [Tienes que estar registrado y conectado para ver este vínculo] [Tienes que estar registrado y conectado para ver este vínculo] [Tienes que estar registrado y conectado para ver este vínculo] | [Tienes que estar registrado y conectado para ver este vínculo]

Capturas
La Última Seducción (1994) [Ver + Descargar] [HD 1080p] [Español-Inglés] [Intriga] 432_FPH3_GCBIOLN9_EA4_KCH

La Última Seducción (1994) [Ver + Descargar] [HD 1080p] [Español-Inglés] [Intriga] 432_FPH3_GCANORDNLQZRFW

La Última Seducción (1994) [Ver + Descargar] [HD 1080p] [Español-Inglés] [Intriga] 432_FPH3_GCBRSMOAUNAS5_S

Trailer


Info
Formato: mkv
Tamaño: 4.79 GB (sin comprimir)
Video: HD 1080p
Audio: AC-3 + MP3
Idioma: Español + Inglés
Subtitulos: Incluye Completos en Español

Mediainfo:
General
Format                      : Matroska
Format version              : Version 4 / Version 2
File size                   : 4.79 GiB
Duration                    : 1 h 50 min
Overall bit rate            : 6 226 kb/s
Movie name                  : La última seducción - [Tienes que estar registrado y conectado para ver este vínculo]
Encoded date                : UTC 2018-03-18 09:02:23
Writing application         : mkvmerge v19.0.0 ('Brave Captain') 64-bit
Writing library             : libebml v1.3.5 + libmatroska v1.4.8

Video
ID                          : 1
Format                      : AVC
Format/Info                 : Advanced Video Codec
Format profile              : High@L4.1
Format settings             : CABAC / 4 Ref Frames
Format settings, CABAC      : Yes
Format settings, RefFrames  : 4 frames
Codec ID                    : V_MPEG4/ISO/AVC
Duration                    : 1 h 50 min
Bit rate                    : 5 000 kb/s
Width                       : 1 920 pixels
Height                      : 1 080 pixels
Display aspect ratio        : 16:9
Frame rate mode             : Constant
Frame rate                  : 24.000 FPS
Color space                 : YUV
Chroma subsampling          : 4:2:0
Bit depth                   : 8 bits
Scan type                   : Progressive
Bits/(Pixel*Frame)          : 0.100
Stream size                 : 3.84 GiB (80%)
Writing library             : x264 core 148 r2708 86b7198
Default                     : Yes
Forced                      : No
Color range                 : Limited
Color primaries             : BT.709
Transfer characteristics    : BT.709
Matrix coefficients         : BT.709

Audio [Tienes que estar registrado y conectado para ver este vínculo]
ID                          : 2
Format                      : MPEG Audio
Format version              : Version 1
Format profile              : Layer 3
Codec ID                    : A_MPEG/L3
Codec ID/Hint               : MP3
Duration                    : 1 h 50 min
Bit rate mode               : Constant
Bit rate                    : 320 kb/s
Channel(s)                  : 2 channels
Sampling rate               : 44.1 kHz
Frame rate                  : 38.281 FPS (1152 SPF)
Compression mode            : Lossy
Stream size                 : 252 MiB (5%)
Title                       : MP3
Language                    : Spanish
Default                     : Yes
Forced                      : Yes

Audio [Tienes que estar registrado y conectado para ver este vínculo]
ID                          : 3
Format                      : AC-3
Format/Info                 : Audio Coding 3
Format settings, Endianness : Big
Codec ID                    : A_AC3
Duration                    : 1 h 50 min
Bit rate mode               : Constant
Bit rate                    : 448 kb/s
Channel(s)                  : 2 channels
Channel positions           : Front: L R
Sampling rate               : 48.0 kHz
Frame rate                  : 31.250 FPS (1536 SPF)
Bit depth                   : 16 bits
Compression mode            : Lossy
Stream size                 : 353 MiB (7%)
Title                       : AC-3
Language                    : Spanish
Service kind                : Complete Main
Default                     : No
Forced                      : No

Audio [Tienes que estar registrado y conectado para ver este vínculo]
ID                          : 4
Format                      : AC-3
Format/Info                 : Audio Coding 3
Format settings, Endianness : Big
Codec ID                    : A_AC3
Duration                    : 1 h 50 min
Bit rate mode               : Constant
Bit rate                    : 448 kb/s
Channel(s)                  : 2 channels
Channel positions           : Front: L R
Sampling rate               : 48.0 kHz
Frame rate                  : 31.250 FPS (1536 SPF)
Bit depth                   : 16 bits
Compression mode            : Lossy
Stream size                 : 353 MiB (7%)
Title                       : AC-3
Language                    : English
Service kind                : Complete Main
Default                     : No
Forced                      : No

Text
ID                          : 5
Format                      : PGS
Muxing mode                 : zlib
Codec ID                    : S_HDMV/PGS
Codec ID/Info               : Picture based subtitle format used on BDs/HD-DVDs
Duration                    : 1 h 44 min
Bit rate                    : 25.3 kb/s
Count of elements           : 2520
Stream size                 : 18.9 MiB (0%)
Title                       : Completos
Language                    : Spanish
Default                     : No
Forced                      : No


Enlaces de Descarga
[Tienes que estar registrado y conectado para ver este vínculo] - [Tienes que estar registrado y conectado para ver este vínculo] - [Tienes que estar registrado y conectado para ver este vínculo] - [Tienes que estar registrado y conectado para ver este vínculo] - [Tienes que estar registrado y conectado para ver este vínculo] - [Tienes que estar registrado y conectado para ver este vínculo] - [Tienes que estar registrado y conectado para ver este vínculo] - [Tienes que estar registrado y conectado para ver este vínculo]


Enlaces Online
[Tienes que estar registrado y conectado para ver este vínculo] - [Tienes que estar registrado y conectado para ver este vínculo] - [Tienes que estar registrado y conectado para ver este vínculo] - [Tienes que estar registrado y conectado para ver este vínculo]


Reroductor
(ok.ru)



NOTA: Por favor, si los enlaces están caidos avisa en un comentario para poder resubirlos. Gracias


Última edición por Admin el Jue 17 Ene 2019 - 14:41, editado 4 veces (Razón : Resubir enlaces)

______________________________________________________
Saludos  Smile
La Última Seducción (1994) [Ver + Descargar] [HD 1080p] [Español-Inglés] [Intriga] New-1-1[Tienes que estar registrado y conectado para ver este vínculo]
avatar
ryangosling
Empezando a Flipar!
Empezando a Flipar!
Sexo : Masculino
Mensajes : 1
Puntos : 1
Reputación : 0
Fecha de inscripción : 08/01/2019

Thriller Re: La Última Seducción (1994) [Ver + Descargar] [HD 1080p] [Español-Inglés] [Intriga]

el Mar 8 Ene 2019 - 21:29
Hola buenas noches,soy nuevo en este foro y pagina,me gusta la pagina web,pero veo que el enlace esta caido,podeis volver a resubirlo,os estaria muy agradecido.Un saludo.Gracias por vuestro gran trabajo.
Admin
Admin
Administrador
Administrador
Sexo : Masculino
Mensajes : 6959
Puntos : 25171
Reputación : 4721
Fecha de inscripción : 02/04/2012
Localización : Alemania

Thriller Re: La Última Seducción (1994) [Ver + Descargar] [HD 1080p] [Español-Inglés] [Intriga]

el Mar 8 Ene 2019 - 21:40
[Tienes que estar registrado y conectado para ver este vínculo] escribió:Hola buenas noches,soy nuevo en este foro y pagina,me gusta la pagina web,pero veo que el enlace esta caido,podeis volver a resubirlo,os estaria muy agradecido.Un saludo.Gracias por vuestro gran trabajo.

La resubiré lo antes posible.

______________________________________________________
Saludos  Smile
La Última Seducción (1994) [Ver + Descargar] [HD 1080p] [Español-Inglés] [Intriga] New-1-1[Tienes que estar registrado y conectado para ver este vínculo]
avatar
mvvsaxito
Empezando a Flipar!
Empezando a Flipar!
Sexo : Masculino
Mensajes : 1
Puntos : 1
Reputación : 0
Fecha de inscripción : 10/01/2019

Thriller Re: La Última Seducción (1994) [Ver + Descargar] [HD 1080p] [Español-Inglés] [Intriga]

el Jue 10 Ene 2019 - 9:10
hola seria posible una cuenta netflix un saludo gracias
Admin
Admin
Administrador
Administrador
Sexo : Masculino
Mensajes : 6959
Puntos : 25171
Reputación : 4721
Fecha de inscripción : 02/04/2012
Localización : Alemania

Thriller Re: La Última Seducción (1994) [Ver + Descargar] [HD 1080p] [Español-Inglés] [Intriga]

el Jue 10 Ene 2019 - 9:54
[Tienes que estar registrado y conectado para ver este vínculo] escribió:hola seria posible una cuenta netflix un saludo gracias

En este momento el post de pedir cuentas Netflix está cerrado, puedes pedirla allí cuando esté abierto.

______________________________________________________
Saludos  Smile
La Última Seducción (1994) [Ver + Descargar] [HD 1080p] [Español-Inglés] [Intriga] New-1-1[Tienes que estar registrado y conectado para ver este vínculo]
avatar
fletcherr
Empezando a Flipar!
Empezando a Flipar!
Sexo : Masculino
Mensajes : 12
Puntos : 12
Reputación : 0
Fecha de inscripción : 11/01/2019

Thriller Re: La Última Seducción (1994) [Ver + Descargar] [HD 1080p] [Español-Inglés] [Intriga]

el Vie 11 Ene 2019 - 9:34
Reputación del mensaje :67% (3 votos)
se ve muy bien
avatar
auroraboreal
Ya Estás Flipandillo!
Ya Estás Flipandillo!
Sexo : Masculino
Mensajes : 37
Puntos : 75
Reputación : 38
Fecha de inscripción : 12/01/2019

Thriller Re: La Última Seducción (1994) [Ver + Descargar] [HD 1080p] [Español-Inglés] [Intriga]

el Sáb 12 Ene 2019 - 12:36
Reputación del mensaje :100% (1 voto)
Soberbia y letal Linda Fiorentino   -llevando por la calle de la amargura, a quien encuentre a su paso.
Volver arriba
Permisos de este foro:
No puedes responder a temas en este foro.