contador flash
flipax.net
¡¡¡Bienvenido al foro!!!
Regístrate o accede a flipax.net para tener acceso a todas las ventajas: poder ver los enlaces, comentar, formar parte de un grupo de usuarios, etc.

Si deseas colaborar en el foro aportando contenido, entra en "Grupos de Usuarios" y haz una petición para ser agregado en el Grupo de Uploaders.
Ir abajo
Admin
Admin
Administrador
Administrador
Sexo : Masculino
Mensajes : 7238
Puntos : 26307
Reputación : 5415
Fecha de inscripción : 02/04/2012
Localización : Alemania

Drama La librería (2017) [Ver Online] [Descargar] [HD 1080p] [Español-Inglés] [Drama]

el Vie 25 Mayo 2018 - 1:08
Reputación del mensaje :100% (3 votos)
La librería (2017) [Ver Online] [Descargar] [HD 1080p] [Español-Inglés] [Drama] The_bookshop_la_libreria-100325491-large
Ver y Descargar La Librería (2017) m1080p Español Castellano Gratis.

Ficha Técnica
SINOPSIS: En un pequeño pueblo de la Inglaterra de 1959, una joven mujer decide, en contra de la educada pero implacable oposición vecinal, abrir la primera librería que haya habido nunca en esa zona.
TÍTULO ORIGINAL: The Bookshop (La librería)
AÑO: [Tienes que estar registrado y conectado para ver este vínculo]
DURACIÓN: 115 min.
PAÍS: La librería (2017) [Ver Online] [Descargar] [HD 1080p] [Español-Inglés] [Drama] ES España
DIRECTOR: [Tienes que estar registrado y conectado para ver este vínculo]
REPARTO: Emily Mortimer,  Patricia Clarkson,  Bill Nighy,  Honor Kneafsey,  James Lance, Harvey Bennett,  Michael Fitzgerald,  Jorge Suquet,  Hunter Tremayne, Frances Barber,  Gary Piquer,  Lucy Tillett,  Nigel O'Neill,  Toby Gibson,  Charlotte Vega, Nick Devlin
GÉNERO: [Tienes que estar registrado y conectado para ver este vínculo] | Años 50. Drama de época

Capturas
La librería (2017) [Ver Online] [Descargar] [HD 1080p] [Español-Inglés] [Drama] La_Librer_a_m1080p_Spa-_Eng.mkv_thumbs

Trailer


Info
CALIDAD DE VIDEO: BDRip m1080p MPEG4 Video (H264) 1920x1040
CALIDAD DE AUDIO 1: Castellano DTS - 5.1 - 1509 Kbps
CALIDAD DE AUDIO 2: Castellano AC-3 - 5.1 - 448 Kbps
CALIDAD DE AUDIO 3: Inglés AC-3 - 5.1 - 448 Kbps
SUBTITULOS: Incluye completos  y forzados en español.
TAMAÑO: 5.76 GiB

Mediainfo:
Format                      : Matroska
Format version              : Version 4 / Version 2
File size                   : 5.76 GiB
Duration                    : 1 h 52 min
Overall bit rate            : 7 327 kb/s
Movie name                  : La Librería - [Tienes que estar registrado y conectado para ver este vínculo]
Encoded date                : UTC 2018-05-24 01:34:44
Writing application         : mkvmerge v23.0.0 ('The Bride Said No') 64-bit
Writing library             : libebml v1.3.6 + libmatroska v1.4.9


Video
ID                          : 1
Format                      : AVC
Format/Info                 : Advanced Video Codec
Format profile              : High@L4.1
Format settings             : CABAC / 5 Ref Frames
Format settings, CABAC      : Yes
Format settings, RefFrames  : 5 frames
Codec ID                    : V_MPEG4/ISO/AVC
Duration                    : 1 h 52 min
Bit rate                    : 4 900 kb/s
Width                       : 1 920 pixels
Height                      : 1 040 pixels
Display aspect ratio        : 1.85:1
Frame rate mode             : Constant
Frame rate                  : 24.000 FPS
Color space                 : YUV
Chroma subsampling          : 4:2:0
Bit depth                   : 8 bits
Scan type                   : Progressive
Bits/(Pixel*Frame)          : 0.102
Stream size                 : 3.85 GiB (67%)
Title                       : AVC
Writing library             : x264 core 155 r2893 b00bcaf
Encoding settings           : cabac=1 / ref=5 / deblock=1:-3:-3 / analyse=0x3:0x113 / me=umh / subme=11 / psy=1 / psy_rd=1.10:0.00 / mixed_ref=1 / me_range=24 / chroma_me=1 / trellis=2 / 8x8dct=1 / cqm=0 / deadzone=21,11 / fast_pskip=1 / chroma_qp_offset=-2 / threads=32 / lookahead_threads=2 / sliced_threads=0 / nr=0 / decimate=1 / interlaced=0 / bluray_compat=0 / constrained_intra=0 / bframes=10 / b_pyramid=2 / b_adapt=1 / b_bias=0 / direct=1 / weightb=1 / open_gop=0 / weightp=2 / keyint=240 / keyint_min=24 / scenecut=40 / intra_refresh=0 / rc_lookahead=60 / rc=2pass / mbtree=1 / bitrate=4900 / ratetol=1.0 / qcomp=0.70 / qpmin=0 / qpmax=69 / qpstep=4 / cplxblur=20.0 / qblur=0.5 / vbv_maxrate=62500 / vbv_bufsize=78125 / nal_hrd=none / filler=0 / ip_ratio=1.40 / aq=1:1.10
Language                    : Spanish
Default                     : Yes
Forced                      : No
Color range                 : Limited
Color primaries             : BT.709
Transfer characteristics    : BT.709
Matrix coefficients         : BT.709


Audio [Tienes que estar registrado y conectado para ver este vínculo]
ID                          : 2
Format                      : DTS
Format/Info                 : Digital Theater Systems
Mode                        : 16
Format settings, Endianness : Big
Codec ID                    : A_DTS
Duration                    : 1 h 52 min
Bit rate mode               : Constant
Bit rate                    : 1 509 kb/s
Channel(s)                  : 6 channels
Channel positions           : Front: L C R, Side: L R, LFE
Sampling rate               : 48.0 kHz
Frame rate                  : 93.750 FPS (512 SPF)
Bit depth                   : 16 bits
Compression mode            : Lossy
Stream size                 : 1.19 GiB (21%)
Title                       : DTS
Language                    : Spanish
Default                     : Yes
Forced                      : Yes


Audio [Tienes que estar registrado y conectado para ver este vínculo]
ID                          : 3
Format                      : AC-3
Format/Info                 : Audio Coding 3
Format settings, Endianness : Big
Codec ID                    : A_AC3
Duration                    : 1 h 52 min
Bit rate mode               : Constant
Bit rate                    : 448 kb/s
Channel(s)                  : 6 channels
Channel positions           : Front: L C R, Side: L R, LFE
Sampling rate               : 48.0 kHz
Frame rate                  : 31.250 FPS (1536 SPF)
Bit depth                   : 16 bits
Compression mode            : Lossy
Stream size                 : 361 MiB (6%)
Title                       : AC-3
Language                    : Spanish
Service kind                : Complete Main
Default                     : No
Forced                      : No


Audio [Tienes que estar registrado y conectado para ver este vínculo]
ID                          : 4
Format                      : AC-3
Format/Info                 : Audio Coding 3
Format settings, Endianness : Big
Codec ID                    : A_AC3
Duration                    : 1 h 52 min
Bit rate mode               : Constant
Bit rate                    : 448 kb/s
Channel(s)                  : 6 channels
Channel positions           : Front: L C R, Side: L R, LFE
Sampling rate               : 48.0 kHz
Frame rate                  : 31.250 FPS (1536 SPF)
Bit depth                   : 16 bits
Compression mode            : Lossy
Stream size                 : 361 MiB (6%)
Title                       : AC-3
Language                    : English
Service kind                : Complete Main
Default                     : No
Forced                      : No


Text [Tienes que estar registrado y conectado para ver este vínculo]
ID                          : 5
Format                      : UTF-8
Codec ID                    : S_TEXT/UTF8
Codec ID/Info               : UTF-8 Plain Text
Duration                    : 1 h 42 min
Bit rate                    : 0 b/s
Count of elements           : 26
Stream size                 : 623 Bytes (0%)
Title                       : Forzados
Language                    : Spanish
Default                     : Yes
Forced                      : Yes


Text [Tienes que estar registrado y conectado para ver este vínculo]
ID                          : 6
Format                      : PGS
Muxing mode                 : zlib
Codec ID                    : S_HDMV/PGS
Codec ID/Info               : Picture based subtitle format used on BDs/HD-DVDs
Duration                    : 1 h 42 min
Bit rate                    : 665 b/s
Count of elements           : 52
Stream size                 : 500 KiB (0%)
Title                       : Forzados PGS
Language                    : Spanish
Default                     : No
Forced                      : No


Text [Tienes que estar registrado y conectado para ver este vínculo]
ID                          : 7
Format                      : UTF-8
Codec ID                    : S_TEXT/UTF8
Codec ID/Info               : UTF-8 Plain Text
Duration                    : 1 h 45 min
Bit rate                    : 59 b/s
Count of elements           : 1234
Stream size                 : 46.0 KiB (0%)
Title                       : Completos
Language                    : Spanish
Default                     : No
Forced                      : No


Text [Tienes que estar registrado y conectado para ver este vínculo]
ID                          : 8
Format                      : PGS
Muxing mode                 : zlib
Codec ID                    : S_HDMV/PGS
Codec ID/Info               : Picture based subtitle format used on BDs/HD-DVDs
Duration                    : 1 h 45 min
Bit rate                    : 40.3 kb/s
Count of elements           : 2474
Stream size                 : 30.5 MiB (1%)
Title                       : Completos PGS
Language                    : Spanish
Default                     : No
Forced                      : No


Menu
00:00:00.000                : en:00:00:00.000
00:09:07.417                : en:00:09:07.417
00:18:39.708                : en:00:18:39.708
00:26:47.167                : en:00:26:47.167
00:36:08.625                : en:00:36:08.625
00:46:18.792                : en:00:46:18.792
00:58:51.292                : en:00:58:51.292
01:07:39.250                : en:01:07:39.250
01:15:54.167                : en:01:15:54.167
01:25:21.917                : en:01:25:21.917
01:32:24.292                : en:01:32:24.292
01:39:55.250                : en:01:39:55.250


Enlaces Descarga
[Tienes que estar registrado y conectado para ver este vínculo] - [Tienes que estar registrado y conectado para ver este vínculo] - [Tienes que estar registrado y conectado para ver este vínculo] - [Tienes que estar registrado y conectado para ver este vínculo] - [Tienes que estar registrado y conectado para ver este vínculo] - [Tienes que estar registrado y conectado para ver este vínculo]
Si tienes problemas para descomprimir actualiza o instala la última versión de [Tienes que estar registrado y conectado para ver este vínculo]


Enlaces Online
[Tienes que estar registrado y conectado para ver este vínculo] - [Tienes que estar registrado y conectado para ver este vínculo] - [Tienes que estar registrado y conectado para ver este vínculo] - [Tienes que estar registrado y conectado para ver este vínculo] - [Tienes que estar registrado y conectado para ver este vínculo] - [Tienes que estar registrado y conectado para ver este vínculo]
En algunos servidores también se puede descargar pero ten en cuenta que la calidad es algo inferior y solo tiene audio en Español.


Reproductor



NOTA: Por favor, si los enlaces están caidos avisa en un comentario para poder resubirlos. Gracias

______________________________________________________
Saludos  Smile
JMC_37
JMC_37
Flipando!
Flipando!
Sexo : Masculino
Mensajes : 290
Puntos : 537
Reputación : 256
Fecha de inscripción : 20/01/2019

Drama Re: La librería (2017) [Ver Online] [Descargar] [HD 1080p] [Español-Inglés] [Drama]

el Jue 24 Ene 2019 - 2:47
Reputación del mensaje :100% (1 voto)
Muchas gracias de nuevo
Estupenda calidad, así da gusto ver palis Cheerss
buker
buker
Moderador General
Moderador General
Sexo : Masculino
Mensajes : 913
Puntos : 3816
Reputación : 625
Fecha de inscripción : 30/10/2017

Drama Re: La librería (2017) [Ver Online] [Descargar] [HD 1080p] [Español-Inglés] [Drama]

el Mar 15 Oct 2019 - 9:45
Reputación del mensaje :100% (1 voto)
Resubida

______________________________________________________
Saludos Cool
avatar
luiti
Flipando!
Flipando!
Sexo : Masculino
Mensajes : 148
Puntos : 200
Reputación : 54
Fecha de inscripción : 27/12/2017

Drama Re: La librería (2017) [Ver Online] [Descargar] [HD 1080p] [Español-Inglés] [Drama]

el Mar 15 Oct 2019 - 17:31
Reputación del mensaje :100% (1 voto)
Gracias
Volver arriba
Permisos de este foro:
No puedes responder a temas en este foro.