contador flash
flipax.net
¡¡¡Bienvenido al foro!!!
Regístrate o accede a flipax.net para tener acceso a todas las ventajas: poder ver los enlaces, comentar, formar parte de un grupo de usuarios, etc.

Si deseas colaborar en el foro aportando contenido, entra en "Grupos de Usuarios" y haz una petición para ser agregado en el Grupo de Uploaders.
Ir abajo
Admin
Admin
Administrador
Administrador
Sexo : Masculino
Mensajes : 7257
Puntos : 26357
Reputación : 5431
Fecha de inscripción : 02/04/2012
Localización : Alemania

Drama Bajo la piel de lobo (2017) [Ver Online] [Descargar] [HD 1080p] [Castellano] [Drama]

el Dom 15 Jul 2018 - 2:33
Reputación del mensaje :100% (2 votos)
Bajo la piel de lobo (2017) [Ver Online] [Descargar] [HD 1080p] [Castellano] [Drama] Bajo_la_piel_de_lobo-422583226-large
Ver y Descargar Bajo la piel de lobo (2017) Español Castellano Gratis.

Ficha Técnica
SINOPSIS: Martinón es un trampero solitario, el último habitante de un remoto pueblo en las montañas. Su único contacto con otros seres humanos se produce en primavera, cuando desciende al valle para comerciar con las pieles de los animales que atrapa. Sin embargo, con la llegada de una mujer a su vida, empezará a experimentar nuevos sentimientos. Este singular encuentro le obligará a elegir entre descubrir su vulnerabilidad o abandonarse a su lado más salvaje.
TÍTULO ORIGINAL: Bajo la piel de lobo
AÑO: [Tienes que estar registrado y conectado para ver este vínculo]
DURACIÓN: 110 min.
PAÍS: Bajo la piel de lobo (2017) [Ver Online] [Descargar] [HD 1080p] [Castellano] [Drama] ES España
DIRECTOR: [Tienes que estar registrado y conectado para ver este vínculo]
REPARTO: Mario Casas, Irene Escolar, Ruth Díaz, Quimet Pla, Josean Bengoetxea, Kandido Uranga
GÉNERO: [Tienes que estar registrado y conectado para ver este vínculo] | [Tienes que estar registrado y conectado para ver este vínculo] [Tienes que estar registrado y conectado para ver este vínculo]

Capturas

Bajo la piel de lobo (2017) [Ver Online] [Descargar] [HD 1080p] [Castellano] [Drama] Bajo_la_piel_de_Lobo_m1080p_Castellano.mkv_thumbs

Trailer


Info
CALIDAD DE VIDEO: m1080p MPEG4 Video (H264) 1920x812
CALIDAD DE AUDIO 1: Castellano AC3 5.1 448 Kbps
TAMAÑO: 4.30 GiB

Mediainfo:
Format                      : Matroska
Format version              : Version 4 / Version 2
File size                   : 4.30 GiB
Duration                    : 1 h 49 min
Overall bit rate            : 5 615 kb/s
Movie name                  : Bajo la piel de Lobo - [Tienes que estar registrado y conectado para ver este vínculo]
Encoded date                : UTC 2018-07-14 13:22:34
Writing application         : mkvmerge v23.0.0 ('The Bride Said No') 64-bit
Writing library             : libebml v1.3.6 + libmatroska v1.4.9


Video
ID                          : 1
Format                      : AVC
Format/Info                 : Advanced Video Codec
Format profile              : High@L4.1
Format settings             : CABAC / 2 Ref Frames
Format settings, CABAC      : Yes
Format settings, RefFrames  : 2 frames
Codec ID                    : V_MPEG4/ISO/AVC
Duration                    : 1 h 49 min
Bit rate                    : 5 165 kb/s
Width                       : 1 920 pixels
Height                      : 812 pixels
Display aspect ratio        : 2.35:1
Frame rate mode             : Constant
Frame rate                  : 29.970 (30000/1001) FPS
Color space                 : YUV
Chroma subsampling          : 4:2:0
Bit depth                   : 8 bits
Scan type                   : Progressive
Bits/(Pixel*Frame)          : 0.111
Stream size                 : 3.96 GiB (92%)
Title                       : AVC
Writing library             : x264 core
Language                    : Spanish
Default                     : Yes
Forced                      : Yes
Color range                 : Limited
Color primaries             : BT.709
Transfer characteristics    : BT.709
Matrix coefficients         : BT.709


Audio
ID                          : 2
Format                      : AC-3
Format/Info                 : Audio Coding 3
Format settings, Endianness : Big
Codec ID                    : A_AC3
Duration                    : 1 h 49 min
Bit rate mode               : Constant
Bit rate                    : 448 kb/s
Channel(s)                  : 6 channels
Channel positions           : Front: L C R, Side: L R, LFE
Sampling rate               : 48.0 kHz
Frame rate                  : 31.250 FPS (1536 SPF)
Bit depth                   : 16 bits
Compression mode            : Lossy
Stream size                 : 351 MiB (8%)
Title                       : AC-3
Language                    : Spanish
Service kind                : Complete Main
Default                     : Yes
Forced                      : Yes


Enlaces Descarga
[Tienes que estar registrado y conectado para ver este vínculo] - [Tienes que estar registrado y conectado para ver este vínculo] - [Tienes que estar registrado y conectado para ver este vínculo] - [Tienes que estar registrado y conectado para ver este vínculo] - [Tienes que estar registrado y conectado para ver este vínculo] - [Tienes que estar registrado y conectado para ver este vínculo] - [Tienes que estar registrado y conectado para ver este vínculo]
Si tienes problemas para descomprimir actualiza o instala la última versión de [Tienes que estar registrado y conectado para ver este vínculo]


Enlaces Online
[Tienes que estar registrado y conectado para ver este vínculo] - [Tienes que estar registrado y conectado para ver este vínculo] - [Tienes que estar registrado y conectado para ver este vínculo] - [Tienes que estar registrado y conectado para ver este vínculo] - [Tienes que estar registrado y conectado para ver este vínculo] - [Tienes que estar registrado y conectado para ver este vínculo] - [Tienes que estar registrado y conectado para ver este vínculo] - [Tienes que estar registrado y conectado para ver este vínculo]
En algunos servidores también se puede descargar pero ten en cuenta que la calidad es algo inferior (excepto uptostream) y solo tiene audio en Español.


Reproductor



NOTA: Por favor, si los enlaces están caidos avisa en un comentario para poder resubirlos. Gracias


Última edición por Admin el Miér 25 Sep 2019 - 4:48, editado 3 veces

______________________________________________________
Saludos  Smile
Admin
Admin
Administrador
Administrador
Sexo : Masculino
Mensajes : 7257
Puntos : 26357
Reputación : 5431
Fecha de inscripción : 02/04/2012
Localización : Alemania

Drama Re: Bajo la piel de lobo (2017) [Ver Online] [Descargar] [HD 1080p] [Castellano] [Drama]

el Lun 23 Sep 2019 - 4:02
Resubida

______________________________________________________
Saludos  Smile
osebar
osebar
Te has fumao un porro JoseMari?
Te has fumao un porro JoseMari?
Sexo : Masculino
Mensajes : 610
Puntos : 890
Reputación : 276
Fecha de inscripción : 08/10/2018

Drama Re: Bajo la piel de lobo (2017) [Ver Online] [Descargar] [HD 1080p] [Castellano] [Drama]

el Miér 25 Sep 2019 - 9:11
Nuchas gracias por la resubida Admin!!

______________________________________________________
Saludos
Volver arriba
Permisos de este foro:
No puedes responder a temas en este foro.