Comparte
Ir abajo
Admin
Admin
Administrador
Administrador
Sexo : Masculino
Mensajes : 4111
Puntos : 12283
Reputación : 1850
Fecha de inscripción : 02/04/2012
Localización : España

Comedia El gran dictador (1940) [Ver Online] [Descargar] [BD 1080p] [Español-Inglés] [Comedia]

el Dom 15 Jul 2018 - 18:53
Reputación del mensaje :100% (3 votos)

Ficha Técnica
SINOPSIS: Un humilde barbero judío que combatió con el ejército de Tomania en la primera guerra mundial vuelve a su casa años después del fin del conflicto. Amnèsico a causa de un accidente de avión, no recuerda prácticamente nada de su vida pasada, y no conoce la situación política actual del país: Adenoid Hynkel, un dictador fascista y racista, ha llegado al poder y ha iniciado la persecución del pueblo judío, a quien considera responsable de la situación de crisis que vive el país. Paralelamente, Hynkel y sus colaboradores han empezado a preparar una ofensiva militar destinada a la conquista de todo el mundo.
TÍTULO ORIGINAL: The Great Dictator
AÑO: [Tienes que estar registrado y conectado para ver este vínculo]
DURACIÓN: 128 min.
PAÍS: Estados Unidos
DIRECCIÓN: Charles Chaplin
REPARTO: Charles Chaplin, Paulette Goddard, Jack Oakie, Reginald Gardiner, Henry Daniell, Carter De Haven, Grace Hayle, Maurice Moscovitch, Billy Gilbert
GÉNERO: [Tienes que estar registrado y conectado para ver este vínculo] | [Tienes que estar registrado y conectado para ver este vínculo] [Tienes que estar registrado y conectado para ver este vínculo] [Tienes que estar registrado y conectado para ver este vínculo] [Tienes que estar registrado y conectado para ver este vínculo] [Tienes que estar registrado y conectado para ver este vínculo]

Capturas



Trailer

Info
CALIDAD DE VIDEO: m1080p MPEG4 Video (H264) 1440x1080
CALIDAD DE AUDIO 1: Castellano AC3 2 canales 448 Kbps
CALIDAD DE AUDIO 2: Ingles DTS 2 canales 1509 Kbps
SUBTITULOS: Incluye completos en español
TAMAÑO: 8.5 GB
Mediainfo:
Format                      : Matroska
Format version              : Version 4 / Version 2
File size                   : 9.14 GiB
Duration                    : 2 h 5 min
Overall bit rate            : 10.4 Mb/s
Movie name                  : El Gran Dictador - [Tienes que estar registrado y conectado para ver este vínculo]
Encoded date                : UTC 2018-07-15 00:46:56
Writing application         : mkvmerge v23.0.0 ('The Bride Said No') 64-bit
Writing library             : libebml v1.3.6 + libmatroska v1.4.9


Video
ID                          : 1
Format                      : AVC
Format/Info                 : Advanced Video Codec
Format profile              : High@L4.1
Format settings             : CABAC / 4 Ref Frames
Format settings, CABAC      : Yes
Format settings, RefFrames  : 4 frames
Codec ID                    : V_MPEG4/ISO/AVC
Duration                    : 2 h 5 min
Bit rate                    : 8 487 kb/s
Width                       : 1 440 pixels
Height                      : 1 080 pixels
Display aspect ratio        : 4:3
Frame rate mode             : Constant
Frame rate                  : 23.976 (24000/1001) FPS
Color space                 : YUV
Chroma subsampling          : 4:2:0
Bit depth                   : 8 bits
Scan type                   : Progressive
Bits/(Pixel*Frame)          : 0.228
Stream size                 : 7.42 GiB (81%)
Title                       : AVC
Writing library             : x264 core 94 r1583 7608d73
Encoding settings           : cabac=1 / ref=4 / deblock=1:0:0 / analyse=0x3:0x133 / me=umh / subme=7 / psy=1 / psy_rd=1.00:0.00 / mixed_ref=1 / me_range=16 / chroma_me=1 / trellis=1 / 8x8dct=1 / cqm=0 / deadzone=21,11 / fast_pskip=0 / chroma_qp_offset=-2 / threads=12 / sliced_threads=0 / nr=0 / decimate=1 / interlaced=0 / constrained_intra=0 / bframes=3 / b_pyramid=2 / b_adapt=1 / b_bias=0 / direct=1 / weightb=1 / weightp=2 / keyint=250 / keyint_min=25 / scenecut=40 / intra_refresh=0 / rc_lookahead=40 / rc=2pass / mbtree=1 / bitrate=8487 / ratetol=1.0 / qcomp=0.60 / qpmin=10 / qpmax=51 / qpstep=4 / cplxblur=20.0 / qblur=0.5 / ip_ratio=1.40 / aq=1:1.00
Language                    : English
Default                     : Yes
Forced                      : Yes


Audio [Tienes que estar registrado y conectado para ver este vínculo]
ID                          : 2
Format                      : AC-3
Format/Info                 : Audio Coding 3
Format settings, Endianness : Big
Codec ID                    : A_AC3
Duration                    : 2 h 5 min
Bit rate mode               : Constant
Bit rate                    : 448 kb/s
Channel(s)                  : 2 channels
Channel positions           : Front: L R
Sampling rate               : 48.0 kHz
Frame rate                  : 31.250 FPS (1536 SPF)
Bit depth                   : 16 bits
Compression mode            : Lossy
Stream size                 : 401 MiB (4%)
Title                       : AC-3
Language                    : Spanish
Service kind                : Complete Main
Default                     : Yes
Forced                      : Yes


Audio [Tienes que estar registrado y conectado para ver este vínculo]
ID                          : 3
Format                      : DTS
Format/Info                 : Digital Theater Systems
Mode                        : 16
Format settings, Endianness : Big
Codec ID                    : A_DTS
Duration                    : 2 h 5 min
Bit rate mode               : Constant
Bit rate                    : 1 509 kb/s
Channel(s)                  : 2 channels
Channel positions           : Front: L R
Sampling rate               : 48.0 kHz
Frame rate                  : 93.750 FPS (512 SPF)
Bit depth                   : 16 bits
Compression mode            : Lossy
Stream size                 : 1.32 GiB (14%)
Title                       : DTS
Language                    : English
Default                     : No
Forced                      : No


Text [Tienes que estar registrado y conectado para ver este vínculo]
ID                          : 4
Format                      : UTF-8
Codec ID                    : S_TEXT/UTF8
Codec ID/Info               : UTF-8 Plain Text
Duration                    : 14 s 796 ms
Bit rate                    : 7 b/s
Count of elements           : 1
Stream size                 : 14.0 Bytes (0%)
Title                       : [Tienes que estar registrado y conectado para ver este vínculo]
Language                    : Spanish
Default                     : Yes
Forced                      : Yes


Text [Tienes que estar registrado y conectado para ver este vínculo]
ID                          : 5
Format                      : UTF-8
Codec ID                    : S_TEXT/UTF8
Codec ID/Info               : UTF-8 Plain Text
Duration                    : 2 h 3 min
Bit rate                    : 42 b/s
Count of elements           : 1487
Stream size                 : 38.9 KiB (0%)
Title                       : Completos
Default                     : No
Forced                      : No


Enlaces Descarga
Uptobox


Enlaces Online
Ok.ru - Rapidvideo - Openload


Reproductor
(ok.ru)



NOTA: Por favor, si los enlaces están caidos avisa en un comentario para poder resubirlos. Gracias

______________________________________________________
[Tienes que estar registrado y conectado para ver este vínculo]
Saludos  Smile
JMC_37
JMC_37
Ya Estás Flipandillo
Ya Estás Flipandillo
Sexo : Masculino
Mensajes : 42
Puntos : 92
Reputación : 50
Fecha de inscripción : 20/01/2019

Comedia Re: El gran dictador (1940) [Ver Online] [Descargar] [BD 1080p] [Español-Inglés] [Comedia]

el Dom 10 Mar 2019 - 1:43
Reputación del mensaje :100% (1 voto)
Esta me la descargo para guardarla Smile

Gracias!
avatar
auroraboreal
Empezando a Flipar
Empezando a Flipar
Sexo : Masculino
Mensajes : 20
Puntos : 41
Reputación : 21
Fecha de inscripción : 12/01/2019

Comedia Re: El gran dictador (1940) [Ver Online] [Descargar] [BD 1080p] [Español-Inglés] [Comedia]

el Lun 11 Mar 2019 - 2:22
Reputación del mensaje :100% (1 voto)
Obra maestra, del no del siempre comprendido Charles Chaplin.
Volver arriba
Permisos de este foro:
No puedes responder a temas en este foro.