Comparte
Ir abajo
Admin
Admin
Administrador
Administrador
Sexo : Masculino
Mensajes : 4127
Puntos : 12333
Reputación : 1852
Fecha de inscripción : 02/04/2012
Localización : España

C.Ficción Matrix (1999) [Ver Online] [Descargar] [HD 1080p] [Español-Inglés] [C.Ficción]

el Sáb 28 Jul 2018 - 10:57
Reputación del mensaje :100% (2 votos)

Ficha Técnica
SINOPSIS: Thomas Anderson es un brillante programador de una respetable compañía de software. Pero fuera del trabajo es Neo, un hacker que un día recibe una misteriosa visita...
TÍTULO ORIGINAL: The Matrix
AÑO: [Tienes que estar registrado y conectado para ver este vínculo]
DURACIÓN: 131 min.
PAÍS:  Estados Unidos
DIRECCIÓN: Lilly Wachowski, Lana Wachowski, Hermanas Wachowski
REPARTO: Keanu Reeves, Laurence Fishburne, Carrie-Anne Moss, Joe Pantoliano, Hugo Weaving, Marcus Chong, Gloria Foster, Matt Doran, Belinda McClory, Julian Arahanga, Anthony Ray Parker, Paul Goddard, Robert Taylor, Marc Aden Gray
GÉNERO: [Tienes que estar registrado y conectado para ver este vínculo] [Tienes que estar registrado y conectado para ver este vínculo] [Tienes que estar registrado y conectado para ver este vínculo] [Tienes que estar registrado y conectado para ver este vínculo] | [Tienes que estar registrado y conectado para ver este vínculo] [Tienes que estar registrado y conectado para ver este vínculo] [Tienes que estar registrado y conectado para ver este vínculo] [Tienes que estar registrado y conectado para ver este vínculo] / [Tienes que estar registrado y conectado para ver este vínculo] [Tienes que estar registrado y conectado para ver este vínculo] [Tienes que estar registrado y conectado para ver este vínculo]

Capturas



Trailer

Info
CALIDAD DE VIDEO: m1080p MPEG4 Video (H264) 1920x800
CALIDAD DE AUDIO 1: Castellano DTS 5.1 755 Kbps
CALIDAD DE AUDIO 2: Cstellano AC-3 5.1 384 Kbps
CALIDAD DE AUDIO 3: Inglés AC-3 5.1 256 Kbps
SUBTITULOS: Incluye completos en español e inglés
TAMAÑO: 4.38 GiB
Mediainfo:
Format                      : Matroska
Format version              : Version 4 / Version 2
File size                   : 4.38 GiB
Duration                    : 2 h 16 min
Overall bit rate            : 4 601 kb/s
Movie name                  : Matrix - [Tienes que estar registrado y conectado para ver este vínculo]
Encoded date                : UTC 2018-07-23 23:07:55
Writing application         : mkvmerge v23.0.0 ('The Bride Said No') 64-bit
Writing library             : libebml v1.3.6 + libmatroska v1.4.9


Video
ID                          : 1
Format                      : AVC
Format/Info                 : Advanced Video Codec
Format profile              : High@L4
Format settings             : CABAC / 4 Ref Frames
Format settings, CABAC      : Yes
Format settings, RefFrames  : 4 frames
Codec ID                    : V_MPEG4/ISO/AVC
Duration                    : 2 h 16 min
Bit rate                    : 3 259 kb/s
Width                       : 1 920 pixels
Height                      : 800 pixels
Display aspect ratio        : 2.40:1
Frame rate mode             : Constant
Frame rate                  : 24.000 FPS
Original frame rate         : 23.976 (24000/1001) FPS
Color space                 : YUV
Chroma subsampling          : 4:2:0
Bit depth                   : 8 bits
Scan type                   : Progressive
Bits/(Pixel*Frame)          : 0.088
Stream size                 : 3.05 GiB (70%)
Title                       : AVC
Writing library             : x264 core 114 r1913 5fd3dce
Encoding settings           : cabac=1 / ref=4 / deblock=1:0:0 / analyse=0x3:0x113 / me=umh / subme=8 / psy=1 / psy_rd=1.00:0.00 / mixed_ref=1 / me_range=16 / chroma_me=1 / trellis=1 / 8x8dct=1 / cqm=0 / deadzone=21,11 / fast_pskip=1 / chroma_qp_offset=-2 / threads=9 / sliced_threads=0 / nr=0 / decimate=1 / interlaced=0 / constrained_intra=0 / bframes=3 / b_pyramid=2 / b_adapt=2 / b_bias=0 / direct=3 / weightb=1 / open_gop=0 / weightp=2 / keyint=250 / keyint_min=23 / scenecut=40 / intra_refresh=0 / rc_lookahead=50 / rc=2pass / mbtree=1 / bitrate=3259 / ratetol=1.0 / qcomp=0.60 / qpmin=10 / qpmax=51 / qpstep=4 / cplxblur=20.0 / qblur=0.5 / ip_ratio=1.40 / aq=1:1.00
Language                    : Spanish
Default                     : Yes
Forced                      : No


Audio [Tienes que estar registrado y conectado para ver este vínculo]
ID                          : 2
Format                      : DTS
Format/Info                 : Digital Theater Systems
Mode                        : 16
Format settings, Endianness : Big
Codec ID                    : A_DTS
Duration                    : 2 h 16 min
Bit rate mode               : Constant
Bit rate                    : 755 kb/s
Channel(s)                  : 6 channels
Channel positions           : Front: L C R, Side: L R, LFE
Sampling rate               : 48.0 kHz
Frame rate                  : 93.750 FPS (512 SPF)
Bit depth                   : 24 bits
Compression mode            : Lossy
Stream size                 : 735 MiB (16%)
Title                       : DTS
Language                    : Spanish
Default                     : Yes
Forced                      : No


Audio [Tienes que estar registrado y conectado para ver este vínculo]
ID                          : 3
Format                      : AC-3
Format/Info                 : Audio Coding 3
Format settings, Endianness : Big
Codec ID                    : A_AC3
Duration                    : 2 h 16 min
Bit rate mode               : Constant
Bit rate                    : 384 kb/s
Channel(s)                  : 6 channels
Channel positions           : Front: L C R, Side: L R, LFE
Sampling rate               : 48.0 kHz
Frame rate                  : 31.250 FPS (1536 SPF)
Bit depth                   : 16 bits
Compression mode            : Lossy
Stream size                 : 374 MiB (8%)
Title                       : AC-3
Language                    : Spanish
Service kind                : Complete Main
Default                     : No
Forced                      : No


Audio [Tienes que estar registrado y conectado para ver este vínculo]
ID                          : 4
Format                      : AC-3
Format/Info                 : Audio Coding 3
Format settings, Endianness : Big
Codec ID                    : A_AC3
Duration                    : 2 h 16 min
Bit rate mode               : Constant
Bit rate                    : 256 kb/s
Channel(s)                  : 6 channels
Channel positions           : Front: L C R, Side: L R, LFE
Sampling rate               : 48.0 kHz
Frame rate                  : 31.250 FPS (1536 SPF)
Bit depth                   : 16 bits
Compression mode            : Lossy
Stream size                 : 249 MiB (6%)
Title                       : AC-3
Language                    : English
Service kind                : Complete Main
Default                     : No
Forced                      : No


Text [Tienes que estar registrado y conectado para ver este vínculo]
ID                          : 5
Format                      : UTF-8
Codec ID                    : S_TEXT/UTF8
Codec ID/Info               : UTF-8 Plain Text
Duration                    : 2 h 7 min
Bit rate                    : 38 b/s
Count of elements           : 1327
Stream size                 : 36.1 KiB (0%)
Title                       : COMPLETOS
Language                    : Spanish
Default                     : No
Forced                      : No


Text [Tienes que estar registrado y conectado para ver este vínculo]
ID                          : 6
Format                      : UTF-8
Codec ID                    : S_TEXT/UTF8
Codec ID/Info               : UTF-8 Plain Text
Duration                    : 2 h 7 min
Bit rate                    : 41 b/s
Count of elements           : 1277
Stream size                 : 39.3 KiB (0%)
Title                       : COMPLETOS
Language                    : English
Default                     : No
Forced                      : No


Enlaces Descarga
Tusfiles - Uptobox - Userscloud - 1fichier - Depositfiles - k-bagi - Rapidgator - Wayupload
En algunos servidores (Tusfiles, Filebebo, Sendit, Userscloud...) es necesario estar registrado para descargar archivos grandes y a mayor velocidad.


Enlaces Online
Rapidvideo - Openload - Vidoza - Streamango - Vidlox - Userscloud - Uptostream
Para ver online en Sendit, Userscloud y Filebebo necesitas estar registrado en su página y usar el navegador Google Chrome


Reproductor
(Vidoza)



NOTA: Por favor, si los enlaces están caidos avisa en un comentario para poder resubirlos. Gracias

______________________________________________________
[Tienes que estar registrado y conectado para ver este vínculo]
Saludos  Smile
avatar
tomasabellan
Empezando a Flipar
Empezando a Flipar
Sexo : Masculino
Mensajes : 3
Puntos : 7
Reputación : 4
Fecha de inscripción : 27/01/2019

C.Ficción Re: Matrix (1999) [Ver Online] [Descargar] [HD 1080p] [Español-Inglés] [C.Ficción]

el Mar 5 Mar 2019 - 15:22
Reputación del mensaje :100% (2 votos)
ok ok
avatar
oconnor
Empezando a Flipar
Empezando a Flipar
Sexo : Masculino
Mensajes : 9
Puntos : 16
Reputación : 7
Fecha de inscripción : 06/12/2018

C.Ficción Re: Matrix (1999) [Ver Online] [Descargar] [HD 1080p] [Español-Inglés] [C.Ficción]

el Mar 5 Mar 2019 - 17:29
Reputación del mensaje :100% (1 voto)
Buah, qué película! Imprescindible para las personas que les gusta la ciencia ficcíon con miga en su trama. Imprenscindible. Los efectos especiales fueron un antes y un después. Como sabreís tiene dos partes más. Las otras dos son buenas, pero la primera... es la primera. También recomendada para los de cine con palomitas sin más pero se engancharán. Si podeís verla en 4K y con una barra de sonido...NO PODRÁS PARPADEAR! Smile
avatar
felicia.rdd
Empezando a Flipar
Empezando a Flipar
Sexo : Femenino
Mensajes : 32
Puntos : 39
Reputación : 9
Fecha de inscripción : 10/10/2018

C.Ficción Re: Matrix (1999) [Ver Online] [Descargar] [HD 1080p] [Español-Inglés] [C.Ficción]

el Miér 6 Mar 2019 - 12:40
Reputación del mensaje :100% (1 voto)
Muchas gracias por la peli
avatar
auroraboreal
Empezando a Flipar
Empezando a Flipar
Sexo : Masculino
Mensajes : 20
Puntos : 41
Reputación : 21
Fecha de inscripción : 12/01/2019

C.Ficción Re: Matrix (1999) [Ver Online] [Descargar] [HD 1080p] [Español-Inglés] [C.Ficción]

el Lun 11 Mar 2019 - 4:39
Reputación del mensaje :100% (1 voto)
Pelicula de Culto... . Parecia que todo estaba dicho y hecho en el terreno de la Ciencia Ficcion, hasta que llegaron los Hermanos Wachowski, para abrir en canal-para asfaltar esta lujosa-liosa autopista, repleta de reflexiones e innovaciones.
klosanfe
klosanfe
Ya Estás Flipandillo
Ya Estás Flipandillo
Sexo : Masculino
Mensajes : 42
Puntos : 51
Reputación : 9
Fecha de inscripción : 15/02/2019

C.Ficción Re: Matrix (1999) [Ver Online] [Descargar] [HD 1080p] [Español-Inglés] [C.Ficción]

el Mar 12 Mar 2019 - 17:00
Un clásico que nadie debería dejar pasar.

Gracias por el aporte Smile
Volver arriba
Permisos de este foro:
No puedes responder a temas en este foro.