Comparte
Ir abajo
Admin
Admin
Administrador
Administrador
Sexo : Masculino
Mensajes : 6972
Puntos : 25227
Reputación : 4742
Fecha de inscripción : 02/04/2012
Localización : Alemania

Comedia Mi hermano ciego (2016) [Ver + Descargar] [HD 1080p] [Spa-Eng] [Comedia]

el Sáb 4 Ago 2018 - 23:52
Reputación del mensaje :100% (3 votos)
Mi hermano ciego (2016) [Ver + Descargar] [HD 1080p] [Spa-Eng] [Comedia] My_blind_brother-893419389-large
Descargar Película Mi hermano ciego (2016) MicroHD 1080p Español Castellano Gratis.

Ficha Técnica
SINOPSIS: Robert es un joven ciego con impresionantes dotes deportivas, las cuales le han convertido en un héroe local. Bill es su hermano, al que siempre le ha tocado ocupar un segundo puesto y aceptar su evidente talento. A pesar de sus diferencias y del carácter arrogante de Robbie, Bill siempre ha estado a su lado, incluso ha compartido su pasión por la vida sana, pero su rivalidad llegará a su punto álgido cuando ambos se enamoran de la misma mujer.
TÍTULO ORIGINAL: My Blind Brother
AÑO: [Tienes que estar registrado y conectado para ver este vínculo]
DURACIÓN: 90 min.
PAÍS: Mi hermano ciego (2016) [Ver + Descargar] [HD 1080p] [Spa-Eng] [Comedia] US Estados Unidos
DIRECCIÓN: Sophie Goodhart
REPARTO: Adam Scott, Nick Kroll, Jenny Slate, Zoe Kazan, Talia Tabin, Conner McVicker, Heidi Lewandowski, Yassie Hawkes, Kenny Santiago Marrero, Branislav R. Tatalovic, Charlie Hewson, Ryan Phoenix, Kellen Boyle, Maryanne Nagel, Connie Kincer, Jeffrey Grover
GÉNERO: [Tienes que estar registrado y conectado para ver este vínculo] [Tienes que estar registrado y conectado para ver este vínculo] [Tienes que estar registrado y conectado para ver este vínculo] | [Tienes que estar registrado y conectado para ver este vínculo]

Capturas
Mi hermano ciego (2016) [Ver + Descargar] [HD 1080p] [Spa-Eng] [Comedia] Mi_hermano_ciego_m1080p_Spa-_Eng.mkv_thumbs

Trailer


Info
CALIDAD DE VIDEO: m1080p MPEG4 Video (H264) 1920x800
CALIDAD DE AUDIO 1: Castellano AC-3 2 canales 448 Kbps
CALIDAD DE AUDIO 2: Inglés AC-3 5.1 448 Kbps
SUBTITULOS: Incluye completos en inglés
TAMAÑO: 3.72 GiB

Mediainfo:
Format                      : Matroska
Format version              : Version 4 / Version 2
File size                   : 3.72 GiB
Duration                    : 1 h 25 min
Overall bit rate            : 6 247 kb/s
Movie name                  : Mi hermano ciego - [Tienes que estar registrado y conectado para ver este vínculo]
Encoded date                : UTC 2018-08-04 12:46:06
Writing application         : mkvmerge v23.0.0 ('The Bride Said No') 64-bit
Writing library             : libebml v1.3.6 + libmatroska v1.4.9


Video
ID                          : 1
Format                      : AVC
Format/Info                 : Advanced Video Codec
Format profile              : High@L4.1
Format settings             : CABAC / 5 Ref Frames
Format settings, CABAC      : Yes
Format settings, RefFrames  : 5 frames
Codec ID                    : V_MPEG4/ISO/AVC
Duration                    : 1 h 25 min
Bit rate                    : 5 349 kb/s
Width                       : 1 920 pixels
Height                      : 800 pixels
Display aspect ratio        : 2.40:1
Frame rate mode             : Constant
Frame rate                  : 23.976 (24000/1001) FPS
Color space                 : YUV
Chroma subsampling          : 4:2:0
Bit depth                   : 8 bits
Scan type                   : Progressive
Bits/(Pixel*Frame)          : 0.145
Stream size                 : 3.19 GiB (86%)
Title                       : AVC
Writing library             : x264 core 152 r2851 ba24899
Encoding settings           : cabac=1 / ref=5 / deblock=1:-3:-3 / analyse=0x3:0x113 / me=umh / subme=11 / psy=1 / psy_rd=1.10:0.05 / mixed_ref=1 / me_range=48 / chroma_me=1 / trellis=2 / 8x8dct=1 / cqm=0 / deadzone=21,11 / fast_pskip=0 / chroma_qp_offset=-3 / threads=25 / lookahead_threads=2 / sliced_threads=0 / nr=0 / decimate=1 / interlaced=0 / bluray_compat=0 / constrained_intra=0 / bframes=5 / b_pyramid=2 / b_adapt=2 / b_bias=0 / direct=1 / weightb=1 / open_gop=0 / weightp=2 / keyint=240 / keyint_min=23 / scenecut=40 / intra_refresh=0 / rc_lookahead=45 / rc=crf / mbtree=1 / crf=21.9 / qcomp=0.70 / qpmin=0 / qpmax=69 / qpstep=4 / vbv_maxrate=62500 / vbv_bufsize=78125 / crf_max=0.0 / nal_hrd=none / filler=0 / ip_ratio=1.40 / aq=1:1.10
Language                    : Spanish
Default                     : Yes
Forced                      : No


Audio [Tienes que estar registrado y conectado para ver este vínculo]
ID                          : 2
Format                      : AC-3
Format/Info                 : Audio Coding 3
Format settings, Endianness : Big
Codec ID                    : A_AC3
Duration                    : 1 h 25 min
Bit rate mode               : Constant
Bit rate                    : 448 kb/s
Channel(s)                  : 2 channels
Channel positions           : Front: L R
Sampling rate               : 48.0 kHz
Frame rate                  : 31.250 FPS (1536 SPF)
Bit depth                   : 16 bits
Compression mode            : Lossy
Stream size                 : 273 MiB (7%)
Title                       : AC-3
Language                    : Spanish
Service kind                : Complete Main
Default                     : Yes
Forced                      : Yes


Audio [Tienes que estar registrado y conectado para ver este vínculo]
ID                          : 3
Format                      : AC-3
Format/Info                 : Audio Coding 3
Format settings, Endianness : Big
Codec ID                    : A_AC3
Duration                    : 1 h 25 min
Bit rate mode               : Constant
Bit rate                    : 448 kb/s
Channel(s)                  : 6 channels
Channel positions           : Front: L C R, Side: L R, LFE
Sampling rate               : 48.0 kHz
Frame rate                  : 31.250 FPS (1536 SPF)
Bit depth                   : 16 bits
Compression mode            : Lossy
Stream size                 : 273 MiB (7%)
Title                       : AC-3
Language                    : English
Service kind                : Complete Main
Default                     : No
Forced                      : No


Text
ID                          : 4
Format                      : UTF-8
Codec ID                    : S_TEXT/UTF8
Codec ID/Info               : UTF-8 Plain Text
Duration                    : 1 h 20 min
Bit rate                    : 62 b/s
Count of elements           : 1541
Stream size                 : 36.7 KiB (0%)
Title                       : COMPLETOS
Language                    : English
Default                     : No
Forced                      : No


Menu
00:00:00.000                : en:00:00:00.000
00:05:00.300                : en:00:05:00.300
00:10:00.600                : en:00:10:00.600
00:15:00.900                : en:00:15:00.900
00:20:01.200                : en:00:20:01.200
00:25:01.500                : en:00:25:01.500
00:30:01.800                : en:00:30:01.800
00:35:02.100                : en:00:35:02.100
00:40:02.400                : en:00:40:02.400
00:45:02.700                : en:00:45:02.700
00:50:03.000                : en:00:50:03.000
00:55:03.300                : en:00:55:03.300
01:00:03.600                : en:01:00:03.600
01:05:03.900                : en:01:05:03.900
01:10:04.200                : en:01:10:04.200
01:15:04.500                : en:01:15:04.500
01:20:30.826                : en:01:20:30.826


Enlaces Descarga
[Tienes que estar registrado y conectado para ver este vínculo] - [Tienes que estar registrado y conectado para ver este vínculo] - [Tienes que estar registrado y conectado para ver este vínculo] - [Tienes que estar registrado y conectado para ver este vínculo] - [Tienes que estar registrado y conectado para ver este vínculo] - [Tienes que estar registrado y conectado para ver este vínculo] - [Tienes que estar registrado y conectado para ver este vínculo]
Si tienes problemas para descomprimir actualiza o instala la última versión de [Tienes que estar registrado y conectado para ver este vínculo]


Enlaces Online
[Tienes que estar registrado y conectado para ver este vínculo] - [Tienes que estar registrado y conectado para ver este vínculo] - [Tienes que estar registrado y conectado para ver este vínculo] - [Tienes que estar registrado y conectado para ver este vínculo] - [Tienes que estar registrado y conectado para ver este vínculo] - [Tienes que estar registrado y conectado para ver este vínculo] - [Tienes que estar registrado y conectado para ver este vínculo] - [Tienes que estar registrado y conectado para ver este vínculo] - [Tienes que estar registrado y conectado para ver este vínculo] - [Tienes que estar registrado y conectado para ver este vínculo] - [Tienes que estar registrado y conectado para ver este vínculo]
En algunos servidores también se puede descargar pero ten en cuenta que la calidad es algo inferior (excepto uptostream) y solo tiene audio en Español.


Reproductor



NOTA: Por favor, si los enlaces están caidos avisa en un comentario para poder resubirlos. Gracias


Última edición por Admin el Lun 9 Sep 2019 - 4:33, editado 1 vez

______________________________________________________
Saludos  Smile
Mi hermano ciego (2016) [Ver + Descargar] [HD 1080p] [Spa-Eng] [Comedia] New-1-1[Tienes que estar registrado y conectado para ver este vínculo]
Admin
Admin
Administrador
Administrador
Sexo : Masculino
Mensajes : 6972
Puntos : 25227
Reputación : 4742
Fecha de inscripción : 02/04/2012
Localización : Alemania

Comedia Re: Mi hermano ciego (2016) [Ver + Descargar] [HD 1080p] [Spa-Eng] [Comedia]

el Vie 16 Ago 2019 - 16:33
resubida!

______________________________________________________
Saludos  Smile
Mi hermano ciego (2016) [Ver + Descargar] [HD 1080p] [Spa-Eng] [Comedia] New-1-1[Tienes que estar registrado y conectado para ver este vínculo]
osebar
osebar
Te has fumao un porro JoseMari?
Te has fumao un porro JoseMari?
Sexo : Masculino
Mensajes : 505
Puntos : 750
Reputación : 235
Fecha de inscripción : 08/10/2018

Comedia Re: Mi hermano ciego (2016) [Ver + Descargar] [HD 1080p] [Spa-Eng] [Comedia]

el Sáb 17 Ago 2019 - 7:43
Gracias Admin!!

______________________________________________________
Saludos
Volver arriba
Permisos de este foro:
No puedes responder a temas en este foro.